&title=好きな惣菜発表ドラゴン
&artist=ンバヂ
&first=1.52
&lv_7=14?
&des_7=好きな譜面発表JMComic
&inote_7=
(160){4}E2,E3,E4,B2f,
{2}1>5[4:1],{4}1,1,
{2}1>5[4:1],{4}1,1pp4[4:3],
,,,,{2}1>5[4:1],
{4}1,1,
{2}1>5[4:1],{4}1,1,
{2}1>5[4:1],{4}1,1pp5[4:3],
,,,,8,
1,{2}1,
{4}2v5[8:1]/8v5[8:1],2/8,1v4[8:1]/7v4[8:1],1/7,
2v5[8:1]/8v5[8:1],2/8,1v4[8:1]/7v4[8:1],1/7,
8p4[8:1],1<6[8:1],2p6[8:1],3>8[8:1],
4p8[8:1],5>2[8:1],{2}6p2[8:1],
{4}5V31[8:1],6v8[8:1],7V53[8:1]
,8v2[8:1],
1V75[8:1],2v4[8:1],{2}3V17[8:1],
{8}3/4,4/5,5/6,6/7,6/8,5/7,4/6,3/5,
1/4,2/5,3/6,4/7,1/5,4/8,3/7,2/6,
8-3[8:1],2,8,7,4-1[8:1],2,4,5,
8-5[8:1],4,8-4[8:1],3,8-3[8:1],2,8,1,
1,1>3[8:1]*<7[8:1],{4}3v5[8:1]/7v5[8:1],,4p8[8:1]/8p4[8:1],
4<7[8:1]/8>3[8:1],8-5[0.375##0.1875]/4-1[0.375##0.1875],{8}8-3[0.375##0.1875]/4-7[0.375##0.1875],,,,{4}4-2[8:1]/5-2[8:1],
4-7[8:1]/5-7[8:1],{2}4-8[8:1]/5-1[8:1],
{32}1,2,3,4,5,6,7,8,1,2,3,4,5,6,7,8,{4}1w5[8:1],1b,
{8}5,{16}5,4,{4}3,2h[8:1]/4h[8:1],2h[8:1]/4h[8:1],
{8}5,{16}5,4,{4}3,2h[8:1]/4h[8:1],2h[8:1]/4h[8:1],
{8}5,{16}5,4,{4}3,2h[8:1]/4h[8:1],2h[8:1]/4h[8:1],
{8}5,{16}5,4,{4}3,3h[8:1]/4h[8:1],3h[8:1]/4h[8:1],
{8}5,{16}5,4,{4}3,2h[8:1]/4h[8:1],2h[8:1]/4h[8:1],
{8}5,{16}5,4,{4}3,2h[8:1]/4h[8:1],2h[8:1]/4h[8:1],
{8}5,{16}5,4,{4}3,2h[8:1]/4h[8:1],2h[8:1]/4h[8:1],
{2}3<6[8:1],{4}1b,{8}3,8,
4h[8:1],{24}8x,7x,6x,{8}4h[8:1],{24}8x,1x,2x,{8}4h[8:1],{24}7x,6x,5x,{8}4x/8,8,
5h[8:1],{24}1x,2x,3x,{8}5h[8:1],{24}1x,8x,7x,{8}5h[8:1],{24}2x,3x,4x,{8}5x/1-4[8:1],7,
5/1-6[8:1],7,5/1-3[8:1],3,5/1-7[8:1],7,5/1-5[8:1],3,
5/1,7,{4}7<4[8:1]/3>8[8:1],{16},,,,,,,,3,
4,{8}3,{16}6,5,{8}6,{16}2,4,{8}3,{16}7,5,{8}6,
{16}1,4,{8}3,{16}8,5,{8}6,{16}1,8,{8}1,2/7,2/7,
4/8,4/8,3/7,3/7,2/6,2/6,1/5,1/5,
{2}4/8-4[8:1],{4}4x/8x,2x/6x,
{16}2,1,2,1,{8}2,{16}7,8,7,8,{8}7,{16}1,8,{8}1,
{16}6,5,6,5,{8}6,{16}3,4,3,4,{8}3,{16}5,4,{8}5,
{16}4,5,4,5,{8}4,{16}5,4,5,4,{8}5,{16}3,6,{8}3,
{16}7,2,7,2,{8}7,{16}2,7,2,7,{8}2,{16}8,1,{8}8,
{16}1/5<1[8:1],2,3,4,{4}5,{16}2/6<2[8:1],3,4,5,{4}6,
{16}8/4>8[8:1],7,6,5,{4}4,{16}7/3>7[8:1],6,5,4,{4}3,
7<4[8:1]/4>1[8:1],7/4,{8}8/7,5/4,2/1,5/4,
{16}8b,7,6,5,7b,6,5,4,6b,5,4,3,5b,4,3,2,
{32}4b/E1,E8,E7,E6,E5,E4,E3,E2,E1,E8,E7,E6,E5,E4,E3,E2,E1,E8,E7,E6,E5,E4,E3,E2,E1,E8,E7,E6,E5,E4,E3,E2,
{1}Cf,
{8}3,3,4,2h[4:1],,4,5,3h[8:1]/5h[8:1],
,2h[8:1]/4h[8:1],,1h[8:1]/3h[8:1],,8>5[4:3],{4}8h[8:9],
{8},,,,,,,,,,,2/1,
,2/4,{4}2/4,
{8}3,3,4,2h[4:1],,4,5,3h[8:1]/5h[8:1],
,2h[8:1]/4h[8:1],,1h[8:1]/3h[8:1],,8-5-1-4-2[1:1],{4}8h[8:9],
{8},,,,,,,,,,,,,,,,8<5[16:3],
2,4<7[16:3],2,8<5[16:3],2,4<7[16:3],2,
8<5[16:3],2,4>1[8:1],1<6[8:1],,,,,6,
1>3[8:1],{16}8,7,{8}1<6[8:1],{16}8,5-1[8:1],{8}1,{16}4,5,,,{8}3,
8<6[8:1],{16}1,2,{8}8>3[8:1],{16}1,4-8[8:1],{8}8,{16}5,4,,,{8}2>5[8:1],
5-2[8:1],2-7[8:1],7>2[8:1],6-2[8:1],6,{4}6<5[4:1],
,,4/8,2/6,
{16}3,4,3,4,2,5,2,5,1,6,1,6,8,7,8,7,
1,2,3,4,5/8,7,6,5,{32}1b/4,2,3,4,5,6,7,8,{4}1/5b,
{8}2b-7[8:1],2,3b-6[8:1],3,4b-1[8:1],4,5b-8[8:1],5,
6b-3[8:1],6,7b-2[8:1],7,1b-5[8:1],1,,,2/3-6[8:1],
2,2/3,2,2/3-6[8:1],2,2/3,2,
2/3q6[8:3],2,2/3,2,{4}2,{8}8/2-5[8:1],1,
2/7-3[8:1],8,7/2>5[8:1],{16}1,1,{8}2/8-4[8:1],7,8/2-7[8:1],{16}1,1,
{8}2>5[8:1]/6<1[8:1],5,{4}6/2,{2}7/3,
{8}1/8,{16}1,8,{8}1,1/3,1/4,1/5,1/6,1/7,
1/8,{16}8,1,{8}8,6/8,5/8,4/8,3/8,2/8,
1/2,{16}2,1,{8}2,2/3,2/4,2/5,2/6,2/7,
7/8,{16}7,8,{8}7,6/7,5/7,4/7,3/7,2/7,
2,2,7,7,1,1,8,8,
{24}2,3,4,7,6,5,2,3,4,7,6,5,1,2,3,8,7,6,1,2,3,8,7,6,
4,5,4,5,4,5,3,6,3,6,3,6,2,7,2,7,2,7,{32}1,8,7,6,1/5,4/8,3/7,2/6,
{4}5b/1b-5[4:1],,,Cf/D6/D5/D4/D3/D2/D1/E8/E7/E6/E5/D7/E4/E2/E1/B8/B7/B6/B5/B4/B3/B2/B1/E3/D8,
E
