&title=Falling, The Star Light
&artist=中河健; 山本美禰子
&first=-0.03
&des=re
&lv_5=13+
&lv_6=13+
&lv_7=宴
&inote_5=(59.33){12},,1q5[24:1]*p5[24:1],{24}4^6[24:1],4<7[16:1]/6>3[16:1],,,{12}1,,,8p4[24:1]*q4[24:1],{24}5^3[24:1],3<7[12:1]/5>1[12:1],,,{12}8,
,,8v5[24:1]/2v5[24:1],{24}6-4[24:1]/4-6[24:1],4V61[12:1]/6V41[12:1],,,{12}8/2,,,8-3[24:1]/2-6[24:1],5/3w7[12:1],7/5,2b/8b,
,,5>2[8:1],6,7,3<7[6:1],1,8,6,8>3[8:1],2<6[6:1],4,
,,5>2[8:1],4,3,1<6[8:1],7>3[6:1],5p4[24:5],{3}4,
{12},,1V75[6:1],1/7V13[6:1],5/3,7,,,5V37[6:1],5/3V51[6:1],1/7,3,
,,7V13[6:1],1V75[6:1],3-5[12:1],5V37[24:5]*z1[24:5],,,,,,8bp6[3:1]*q2[3:1],
,,,,,,,,4v5[12:1]/8v1[12:1],1-3[16:1]/5-7[16:1],{6}2/6,
{12},,3-1[12:1]/4-8[12:1],8/1-5[12:1],{3}6/5-7[16:1],{12}5-1[8:1]*-7[12:1],{24}1/7z3[8:1],7/1-3[12:1],,,,,,,,,{12}5V38[8:1]/4-1[12:1],
{24}8/1V74[8:1],1/8-5[12:1],,,,,,,,,{12}6/5V73[8:1]*-8[12:1],{24}3/8V25[48:5],8/3V51[8:1],,,,,,,,,{12}8s4[6:1],
{24}2/6,2/6,,,{12}4w8[24:5],,,{3}4pp5[24:1]*qq3[24:1],
{12},,3-6[48:5],4,5,7V13[6:1],1V75[6:1]*-3[12:1],3V58[192:37],{3}5-2[64:7]*-8[64:7],
{12},7p3[48:5],5,4,2,1>4[8:1],3^5[12:1]/2<7[8:1],5qq2[24:7]/8^6[12:1],{3}1/6pp5[24:5],
{12},,3-7[48:5],4,5,6V82[6:1],8V64[6:1]*V24[6:1],2V48[384:77],{3}4V26[384:77]*-8[128:15],
{12},1p5[48:5],{6}8/4,{12}2,8>3[8:1],4/2^4[12:1]*<7[8:1],8^6[12:1]/4qq5[24:5],{3}8/6pp4[24:5],
{6},5w1[3:1]/4w8[3:1],,,,,,,,,
E
&inote_6=(59.33){12},,8/5pp8[6:1]*p1[12:1],{24}1,2/1,,,{12}5,,,4qq1[6:1]/1p5[12:1],{24}5,6/5,,,{12}1,
,,4pp7[6:1]/7q3[12:1],{24}3>8[12:1],2/3,,,{12}7/4,,,8q4[24:1]/6-2[24:1],5/7>5[6:1],3/1,6b/8b,
,,6q8[6:1],8,7,5p3[6:1],3,4,5q7[6:1],7,6,4p3[6:1],
2,3>8[12:1],4q5[6:1],7,5<8[12:1],4p3[6:1],1,3>4[24:5]*q4[24:5],{3}4,
{12},,7pp1[12:1]/1qq7[12:1],7qq5[12:1]/1pp3[12:1],3/5,1/7,,,2qq8[12:1]/8pp2[12:1],2p4[8:1]/8q6[8:1],6/4,8/2,
,,1>4[24:1]/8<5[24:1],6pp8[16:1]/3qq1[16:1],7qq5[16:1]/2pp4[16:1],8/1,,,7<2[4:1]/2>7[4:1],,,2b<2[8:3]/7b>7[8:3],
,,,,,,,,2>5[12:1],5p1[12:1]*q1[12:1],{6}1<6[12:1],
{12},,3>8[12:1],8p3[12:1]/7<4[12:1],{3}4p7[12:1],{12}5>2[16:1],2q6[16:1]/6q2[16:1],{6}1<6[16:1],
{12},,4pp6[16:1],1q5[16:1]/5q1[16:1],{3}8pp2[16:1],{12}3q1[16:1],6pp8[16:1]/2pp4[16:1],{6}7q5[16:1],
{12},,4s8[16:3],6/2,3/7,8pp4[48:11]/4pp8[48:11],,,{3}4w8[32:1],
{12},,8/1>4[12:1],7,6,5p8[12:1],8p3[12:1],3>5[6:1],{3}8>3[12:1]*<5[12:1],
{12},5>3[24:1]/4<6[24:1],8/1,7/2,5/4,1qq7[12:1]/8pp2[12:1],2pp4[12:1]/7qq5[12:1],4>8[12:1]/5<1[12:1],{3}1q4[6:1]/8p5[6:1],
{12},,6/5<8[12:1],4,3,1p4[12:1],4p7[12:1],7<1[6:1],{3}4<7[12:1]*>1[12:1],
{12},8-2[24:1]/2<8[24:1],{6}4/6,{12}8/2,1q5[12:1]/7p3[12:1],3p6[12:1]/5q2[12:1],2qq1[12:1]/6pp7[12:1],{3}1q4[6:1]/7p4[6:1],
{24},,,,5w1[3:1],4w8[24:7],
,,,,,,,,,,,,,,,,,,,,,,,,,,,,,
E
&inote_7=(59.33){12},{96},,,,,,,,2p6[48:1]/8q4[48:1],3/7,{16}4pp2[48:5]/6qq8[48:5],{48},,{24}3/7,,,{12}8/2,{96},,,,,,,,,,,,,,,,7p3[48:1]/1q5[48:1],6/2,{16}5qq1[8:1]/3pp7[8:1],{48},,{24}2/6,,,{12}1/7,
{96},,,,,,,,,,,,,,,,2-6[48:1]/8-4[48:1],3/7,{16}4pp3[48:5]/6qq7[48:5],{48},,{24}3-1[24:1]/7-1[24:1],,,{12}8/2,{96},,,,,,,,,,,,,,,,2/8w4[48:1]*-4[48:1],7/3h,{16}6h/4qq2[24:1]*pp6[24:1],{12}5/3,6/2,8b,
{96},,,,,,,,,,,,,,,,7,6,{16}5q8[6:1],{12}4,4,{96}1,2,{16}3p8[6:1],{12}4,4,{96}7,6,{16}5q8[6:1],{12}4,4,{96}1,2,{16}3qq8[6:1],
{12}4,4,{96}8,7,{16}6pp1[6:1],{12}5,5,{96}1,2,{16}3qq4[48:7],{12}4,4>5[4:1]*q8[12:1],{96}8qq5[6:1],7,{16}6,{4},{16},,{24},{12}6p8[12:1]/4q2[12:1],
2z6[8:1]/8s4[8:1],{3}7/3,{12}3z7[12:1]/5s1[12:1],7s3[8:1]/1z5[8:1],{6}2/6,
{12},,6/4s8[6:1],3,1/5,8q1[24:5]/4q5[24:5],1,5,4>5[12:7]/8<1[12:7],,,4b/8b,
,,,,,,,,1w5[24:1],4w8[24:1],{6}7w3[24:1],
{12},,5w1[24:1],8w4[24:1],{3}3w7[24:1],{12}4w8[24:1],7w3[24:1]*-3[24:1],{6}2w6[24:1],
{12},,8w4[24:1],3w7[24:1]*-7[24:1],{3}6w2[24:1],{12}8w4[24:1],5w1[24:1]*w1[24:1],{6}2w6[24:1],
{12},,4w8[24:1],1w5[24:1]/8w4[24:1],{3}5w1[24:1],{96}3V58[64:3]/7V52[64:3],4/6,{16}5w1[192:5],{4},{16},,{64},,{96},1,
2,{16}3h[48:7],{12}4,5,{96}1-5[12:1],8,{16}7h[48:7],{12}5>2[12:1],2-6[12:1],{96}1/6<1[12:1],5,{16}4h[48:7],{48},,,,,,,,{12}5qq2[6:1],
,7,{96}5/8,7,{16}6,{12}1,1,{96}2p4[12:1]/8q6[12:1],3/7,{16}4/6,{12}4pp5[12:1]/6qq5[12:1],5V72[12:1]*V38[12:1],{3}2qq5[6:1]/8pp5[6:1],
{96},,,,,,,,,,,,,,,,8/1,7,{16}6h[48:7],{12}5,4,{96}6/8-4[12:1],1,{16}2h[48:7],{12}4<7[12:1],7-3[12:1],{96}8/3>8[12:1],4,{16}5h[48:7],{48},,,,,,,,{12}4pp7[6:1],
,3,{96}4/1,2,{16}3,{48},,,,{12}8,{96}7q4[12:1]/1p4[12:1],6/2,{16}5/3,{12}8/4pp5[12:1]*qq3[12:1],5s1[12:1]/3z7[12:1],{3}7pp5[6:1]/1qq3[6:1],
{96},,,,,,,,,,,,,,,,4bw8[3:1]*qq2[3:1]/5bw1[3:1]*pp7[3:1],3h/6h,{16}7h/2h,
,,,,,,,,,,,,,,,,,,,,
E
