&title=Icyxis ~True Ending~
&artist=Raimukun
&first=1.122
&lv_5=14+
&des_5=altostratus
&inote_5=
(222){4}5b-2>3-8[2:3]/4b-7<6-1[2:3],,,,,,,,{1}7-5-1-3[2:3]/2-4-8-6[2:3],
,1pp2-8<6[1:1],
5pp6-4>2[1:1],
1<2q7[2:3],
6q3b[2:1],
{4}5x/4x,6/3,7/2,{8}4,4,
5,4,{4}4-2[4:1]*-6[4:1],{2},{4}5/4,
6/3,7/2,{8}5,5,
4,5,{4}5-7[4:1]*-3[4:1],{2},{4}7,
8<6[4:1],{2}1,
{4}2,1>3[4:1],{2}8,
{1}4-7>1[8:5]/5>3-8[8:5],
{2}C,{8}3h[16:1],4h[16:1],5h[16:1],6h[16:1],
{1}7bh[4:7]/2b-4pp5-1<6[2:3],
,2h[4:7]/7<6-8-5>4v1>3[2:3],
,5h[4:7]/4<6-3qq2-7>8[2:3],
,4h[4:3]/5>4-8>1-7-5-3-1[2:3],
4>1b[2:1],
{8}3/2h[16:1],2h[16:1],2/4h[16:1],4h[16:1],4/3h[16:1],3h[16:1],3/5h[16:1],5h[16:1],
5/4h[16:1],4h[16:1],4/6h[16:1],6h[16:1],6/5h[16:1],5h[16:1],5/7h[16:1],7h[16:1],
{16}7/1x,2,3,4,8x,7,6,5,2x,3,4,5,7x,6,5,4,
3x,4,5,6,7,8,1,2,5x,6,4x,3,6x,7,3x,2,
8x,7,{8}6h[16:1]/4h[16:1],{16}1x,2,{8}3h[16:1]/5h[16:1],{16}7x,6,{8}5h[16:1]/4h[16:1],{16}2x,3,{8}4h[16:1]/5h[16:1],
{16}8x/1x,7x/2x,6x/3x,5xh[4:1]/4xh[16:3],{4},{16}4,5,4,5,3,6,2,7,
{24}1,2,3,8,7,6,2,3,4,7,6,5,{2}4>1[8:1]*<7[8:1],
5h[8:7]/4-8[8:1],1h[8:3],
{1}5x-3-6-8[2:1]/1x-7-2-4b[2:1],
{8}5b/4b,{16}3,5,{8}2,2,{16}6,4,{8}7,{4}7>2[8:1],
{8}5-1[8:1],5,7-3[8:1],7,2<7[8:1],2,{4},{8}2/5,
{16}3-1[8:1],4,{4}3,{16}6-8[8:1],5,6,5,{4}6>3[8:1],
{8}1-5[8:1],1,7-3[8:1],7,2<7[8:1],2,{4},4b/5b,
{8}4h[16:1],4h[16:1],6h[16:1],6h[16:1],2h[16:1],2h[16:1],
8h[16:1]/1h[8:1],8h[16:1],2h[16:1]/7h[8:1],2h[16:1],6h[16:1]/3h[8:1],6h[16:1],4h[16:1]/5h[8:1],4h[16:1],
{16}1,2,8,7,1,2,8,7,2,3,7,6,2,3,7,6,
3,5,3,5,4,6,4,6,B6,B7,B8,B1,B2,B3,{8},1b/8b,
{16}7,1,{8}6,6,{16}2,8,{8}3,{4}3<6[8:1],
{8}1-5[8:1],1,3-7[8:1],3,6>3[8:1],6,{4},{8}6/1,
{16}7-5[8:1],8,{4}7,{16}2-4[8:1],1,2,1,{4}2<7[8:1],
{8}5-1[8:1],5,3-7[8:1],3,6>3[8:1],6,{4},8b/1b,
{8}8h[16:1],8h[16:1],2h[16:1],2h[16:1],6h[16:1],6h[16:1],
4h[16:1]/5h[8:1],4h[16:1],6h[16:1]/3h[8:1],6h[16:1],2h[16:1]/7h[8:1],2h[16:1],{16}8h[16:1],1h[16:1],8h[16:1],1h[16:1],
{4}8b,{16}8,7,6/2,3,{4}1b/4,{16}1,2,3/7,6,
8b/5,1,2,3,4/1,8,7,6,5/2x,B2,1x,B1,8x,B8,7x,B7,
{4},Cf/E7/B7/B6/B2/B3/E3,{16}1,8,2,7,{4}3-8[8:1],
{8}4/3,4-7[8:1],,5/4,{4}5-2[8:1],6-1b[8:1],
6x,{16}2,4,2,5,3,5,3,6,4,6,4,7,
5,4,3,2,6,5,4,3,7,6,5,4,{4}8-5[8:1]*-3[8:1],
8b,{16}2,4,3,5,4,6,5,7,{8}1v4[8:1]*v6[8:1],1,
{4},{16}5,7,4,6,3,5,2,4,{4}1w5[8:1],
1b,{16}1,2,4,5,2,3,5,6,3,4,6,7,
4,5,7,8,5,6,8,1,E1,E8,E7,E6,E5,E4,E3,E2,
{4},Cf/E3/B3/B2/B6/B7/E7,{16}5,4,6,3,{4}7-2[8:1],
{8}8/7,8-5[8:1],,1/8,{4}1-4[8:1],2-7b[8:1],
2x,{16}6,8,6,1,7,1,7,2,8,2,8,3,
1,8,7,6,2,1,8,7,3,2,1,8,4,3,2,1,
{8}5b<8[8:1]*q1[8:1],5,{4},{8}4b>1[8:1]*p8[8:1],4,{4},{8}5b/4-2[8:1],
4,4/5-7[8:1],5,5/4b>1[8:1],4,{32}4h[4:1],{8},{32}D1,A8,D8,
{4}D7f/A7/E7/A6,{16}1,8,1,8,1,8,1,8,1,8,1,8,
1b,8b,1b,8b,1b,8b,1b,8b,1b,8b,1b,8b,1b,8b,1b,8b,
{1}E1,
{2}C,E5,
{8}6b/3b,{16}3,4,{8}3,{16}6,5,{8}6,7,8/1>4[8:1],2,
{4}3h[8:1],{8}1,8/7V51[4:1],,1,{4}3-7b[8:1],
3b/4b,{16}6,5,7,5,6,4,5,4,6-2[8:1],3,5,3,
{8},{16}3,4,{8}5-1[8:1],{16}2,1,8,7,6,5,4,3,2,1,
{8}8/4b-1[8:1],4h[16:1],7-4[8:1],7h[16:1],2-7[8:1],2h[16:1],5-2[8:1],5h[16:1],
8-5[8:1],8h[16:1],3-8[8:1],3h[16:1],6-3[8:1],6h[16:1],1-6[8:1]*-7[8:1],1h[16:1],
{2}1b-4>3-1[16:5],{16}7,6,5,4,2,3,4,5,
7,6,2,3,6,5,3,4,{24}7x,6,5,2x,3,4,8x,7,6,1x,2,3,
{4}1xw5b[8:1],A1f,{8}8xh[16:1]/2xh[16:1],8h[16:1]/2h[16:1],7h[16:1]/3h[16:1],7h[16:1]/3h[16:1],
{16}4,6,4,6,{8}8x,{16}5,3,5,3,{8}1x,{16}2,7,3,6,
{4}4bqq3<4[4:1],{8}7/4<6[8:1],8,{16}1h[8:3],{8},{16}E6,E5,E4,E3,E2,
8,7,6,5,7,6,5,4,6,5,4,3,5,4,3,2,
{8}4bv1[8:1]/1>4[8:1],4,{4},{8}5bv8[8:1]/8<5[8:1],5,{4},{8}4b-8[8:1]/7b-3[8:1],
4/7,{4},{2}1b-5b[8:1]/2b-6b[8:1],
{16}4,5,4,5,4,5,4,5,3,6,3,6,3,6,3,6,
2b,7b,2b,7b,2b,7b,2b,7b,{32}1b,8b,7b,6b,5b,4b,3b,2b,{4}1b>4b[8:1],
{8}1x,8<5[8:1],1,8,4-8[8:1],7,{4},{16}D3,
B3,B4,D5,A1,B1,B6,A6,A2,B2,B5,A5,D1,B8,B7,D7,
{8}4-8[8:1],{16}7,6,{4}5-1[8:1],2-4>3-8[4:1],8-5b[8:1]*-4b[8:1],
,{16}1-4b[8:1]*-5b[8:1],8,1,8,{4},{16}8x-3b[8:1]/1x-6b[8:1],7x/2x,{8}6x/3x,
{4}E1f/A8/A1/D1,{8}5/4,5/4,{4}5h[8:1]/4h[16:3],{16}6,3,7,2,
8<5b[8:1],1,8,1,{4}8x>3b[8:1],8x-4b[8:1],8x,
{8}1b/8b,{16}8,7,1,2,7,6,2,3,6,5,3,4,5,4,
{2}1v6[8:1]*>2-4[8:1],{32}8x,1x,2x,3x,4x,5x,6x,7x,{16}E1/B8,E3/B2,E5/B4,E7/B6,
{4}8xw4b[8:1],A8f,{16}7h[8:1],6xh[16:1],{8},{16}2h[8:1],3xh[16:1],{8},{4}1-4-2[4:1],
{8}7,6,{4}5-8-6[4:1],1-5[8:1],
1b,{16}4,7,3,6,2,5,1,4,{8}2xh[16:1],6xh[16:1],
{16}2b,3x/5x,{8}4x,{16}7,6x/4x,{8}5x,{16}1b,2x/4x,{8}3x,{16}8,7x/5x,{8}6x,
3b-7[8:1],4-8[8:1],{4},{8}5b-1[8:1],6-2[8:1],{4},{16}3b,
7b,3b,7b,2b,6b,2b,6b,{32}1b,8b,7b,6b,5b,4b,3b,2b,{4}1b,
{1}E1f/D1/D8/D2/1bx-6<7-4[2:3]/8bx-3>2-5[2:3],
,3-1-5-7[2:3]/6-8-4-2[2:3],
,6-8pp1-5[1:1],
3-1qq8-4[1:1],
6-3v5-8-6[8:11],
2V41b[8:3],
{4}1x/8x,2/7,3/6,{8}8,8,
1,8,{4}8-6[4:1]*-2[4:1],{2},{4}1/8,
2/7,3/6,{8}1,1,
8,1,{4}1-3[4:1]*-7[4:1],{2},{4}3,
4>2[4:1],{2}5,
{4}6,5<7[4:1],{2}4,
{1}8-2v5[8:5]/1v6-4[8:5],
{2}B3/B2/E3/B7/B6/E7,{16}4,5,4,5,4,5,4,5,
2b,3,7,6,2,3,7,6,2,3,7,6,2,3,7,6,
1,2,3,4,8,7,6,5,3,2,1,8,7,6,5,4,
7x,5,7,5,6,4,6,4,7,5,7,5,6,4,6,4,
7,6,5,4,8,1,2,3,5,4,3,2,1,8,7,6,
4x,5,3,6,4,5,3,6,4,5,3,6,4,5,3,6,
2,7,1,8,2,7,1,8,2,7,1,8,2,3,4,5,
7x,6,7,6,7,6,7,6,7,6,7,6,7,6,5,4,
2x,3,2,3,2,3,2,3,2,3,2,3,2,3,4,5,
{4}6b-2[8:1],1>4b[8:1],{24}8,7,6,5,{12},{16}5<8[8:1],4,5,4,
{4}5b>2[8:1],5p5b[4:1],{32}E5,E4,E3,E2,E1,E8,E7,E6,{4}1x-5[8:1],
1b,{8}6h[16:1],{24}7x,8x,1x,{8}2x/3h[16:1],{24}2x,1x,8x,{4}7x/6h[16:1],
{24}1/7h[8:1],2,3,4,{12},{24}8/2h[8:1],7,6,5,{12},{4}7h[16:3]/6h[8:1],{32}1,2,3,4,5,6,7,8,
{16}1/E8,E7,E6,E5,B7,B6,B5,B4,8x,7x,6x,5x,4x,3x,2x,1x,
8x/E2,E3,E4,E5,B2,B3,B4,B5,1x,2x,3x,4x,5x,6x,7x,8x,
6b,5,3b,4,6b,5,3b,4,7b,6,2b,3,7b,6,2b,3,
{32}D8,D7,D6,D5,D4,D3,D2,D1,E8,E7,E6,E5,E4,E3,E2,E1,4,3,2,1,8,7,6,5,4,3,2,1,8,7,6,5,
{4}4bx>8[8:5],4<5<6<7>8b[8:3],,,,Cf/E3/B2/B3/B7/B6/E7,
{16}8,1,7,2,{4}6-1[8:1],
{8}5/6,5-2[8:1],,4/5,{4}4-7[8:1],3-8b[8:1],
3x,{16}7,5,7,4,6,4,6,3,5,3,5,2,
4,5,6,7,3,4,5,6,2,3,4,5,{4}1-4[8:1]*-6[8:1],
1b,{16}7,5,6,4,5,3,4,2,{8}8v5[8:1]*v3[8:1],8,
{4},{16}4,2,5,3,6,4,7,5,{4}8w4[8:1],
8b,{16}8,7,5,4,7,6,4,3,6,5,3,2,
5,4,2,1,4,3,1,8,E1,E2,E3,E4,E5,E6,E7,E8,
{4},Cf/E7/B6/B7/B3/B2/E3,{16}4,5,3,6,{4}2-7[8:1],
{8}1/2,1-4[8:1],,8/1,{4}8-5[8:1],7-2b[8:1],
7x,{16}3,1,3,8,2,8,2,7,1,7,1,6,
8,1,2,3,7,8,1,2,6,7,8,1,5,6,7,8,
{8}4b>1[8:1]*p8[8:1],4,{4},{8}5b<8[8:1]*q1[8:1],5,{4},{8}4b/5-7[8:1],
5,5/4-2[8:1],4,4/5b,5,{4}5/4,
{16}8,1,8,1,8,1,8,1,8,1,8,1,8,1,8,1,
8b,1b,8b,1b,8b,1b,8b,1b,8b,1b,8b,1b,8b,1b,8b,1b,
7bx,6bx,2bx/5bx,3bx,4bx/7bx,6bx,5bx/2bx,3bx,4bx/7bx,6bx,5bx/2bx,3bx,4bx/7bx,6bx,5bx/2bx,3bx,
4bx/A7,A6,A5,A4,A3,A2,A1,A8,{8}4b,2b,8b-4[8:1],6b,
{4}4xw8b[8:1],A4f,{2}2-7[8:1]/6-3[8:1],
{16}1xh,B2,B3,E4,4xh,B5,B6,E7,7xh,B8,B1,E2,2xh,B3,B4,E5,
{4}5bx-8[8:1],7-2[8:1],2<7[8:1],3-5-7[4:1],
{8}6/3,8-4[8:1],,8/5,3h[2:1],{32}B3,B2,B1,B8,B7,B6,B5,B4,B3,B2,B1,B8,
{4}7bx-2[8:1],7/3-6[8:1],3/8-4[8:1],8/5-1[8:1],
5/6-8[8:1],6/4-2[8:1],4/1,{24}1<6b[8:1]*>4b[8:1],B1,C,B5,{12}A5,
{4}1b,8x<5b[8:1]*>3b[8:1],8b,1x,
{16}2h[16:3],{32}B8,C,{8}B4,{16}7h[16:3],{32}B1,C,{8}B5,8-5[8:1],1-4[8:1],{32}E8,B7,B6,E6,E2,B2,B3,E4,
{4}8b,{16}3,5,3,5,4-2[8:1],6,4-7[8:1],6,{4}4v1b[8:1],
,{16}8/2,7,{8}6,5/4,{16}3,2,{4}1/7,
{8}5b/3b,{16}1,7,2,6,3,5,2,8,3,7,4,6,4,6,
{8}E3/A2/D3,7h[16:1],7,3h[16:1],{32}3/A6/D7/E7,A7,D8,A8,D1,A1,D2,A2,D3,A3,D4,A4,D5,A5,D6,A6,
{4}1/D7f,{8}2,B8/E1,{4}3,4/E7,
8/D3f,{8}7,E1/B1,{4}6,5h[8:1]/E3,
{8}8bh[8:1],{24}3,4,5,{8}7h[8:1],{24}2,3,4,{8}6h[8:1],{24}1,2,3,{8}5h[8:1],{24}8,1,2,
{16}7b,4x,5x,6x,2,5x,4x,3x,{32}8b,7,6,5,4,3,2,1,8,7,6,5,4,3,2,1,
{2}8/4b-8[8:1],7-2[8:1]/3-6[8:1],
{16}8xh,B7,B6,E6,5xh,B4,B3,E3,2xh,B1,B8,E8,7xh,B6,B5,E5,
{4}4bx-1[8:1],2-7[8:1],7>2[8:1],6-4-2[4:1],
{8}3/6,1-5[8:1],,1/4,6h[2:1],{32}B6,B7,B8,B1,B2,B3,B4,B5,B6,B7,B8,B1,
{4}2bx-7[8:1],2/6-3[8:1],6/1-5[8:1],{8}1/4,4x,
,3b/E5/E4/A5f,{16},7b/E1/E8/A1f,{8},{16}2b/E5f/B4/B3/E3,{8},{16}6b/E1f/B8/B7/E7,{8},1b/A4f/E4/B3/B2/E2,
{4}A8f/E8/B7/E6/B6/5b-8-6[8:1],4-1b[8:1],4-1-3[8:1],5,
{16}7h[16:3],{32}B1,C,{8}B5,{16}2h[16:3],{32}B8,C,{8}B4,1-4[8:1],8-5[8:1],{32}E2,B2,B3,E4,E8,B7,B6,E6,
{4}1b,{16}6,4,6,4,5-7[8:1],3,5-2[8:1],3,{4}5v8b[8:1],
,{16}1/7,2,{8}3,4/5,{16}6,7,{4}8/2,
{8}4b/6b,{16}8,2,7,3,6,4,7,1,6,2,5,3,5,3,
{8}E7/A7/D7,2h[16:1],2,6h[16:1],{32}6/A3/D3/E3,A2,D2,A1,D1,A8,D8,A7,D7,A6,D6,A5,D5,A4,D4,A3,
{4}8/D3f,{8}7,B1/E1,{4}6,5/E3,
1/D7f,{8}2,E1/B8,{4}3,4h[8:1]/E7,
{8}1bh[8:1],{24}6,5,4,{8}2h[8:1],{24}7,6,5,{8}3h[8:1],{24}8,7,6,{8}4h[8:1],{24}1,8,7,
{16}2b,5x,4x,3x,7,4x,5x,6x,{32}1b,2,3,4,5,6,7,8,1,2,3,4,5,6,7,8,
{1}1/5b-1[4:63],
,,,,,,,{4}4b,
4,2,3h[8:1],
3h[8:1],3,{2}2,
{4}6,6,8,7h[8:1],
7h[8:1],7,{2}8,
{4}5b,6/4,4/6,4/6,
5b,6/4,4/6,6/4,
5b,6/4,5b,6/4,
5b,4/6,{2}5b-1b[8:1],
{8}4h[16:1],4h[16:1],6h[16:1],6h[16:1],3h[16:1],3h[16:1],5h[16:1],5h[16:1],
1bh[16:1]/2bh[16:1],{16}8/3,7/4,{4}6h[8:1]/5h[8:1],{8}8bh[16:1]/7bh[16:1],{16}1/6,2/5,{32}3x,4x,5x,6x,7x,8x,1x,2x,
{8}3bx,{16}7,8,{8}7h[16:1],{16}2,1,{8}2h[16:1],{16}6,5,{8}6h[16:1],{16}3,4,
{8}3bh[16:1],4/2h[16:1],5/1h[16:1],6/8h[16:1],7xh[16:1],{32}B6,B5,B4,B3,{8}2xh[16:1],{32}A3,A4,A5,A6,
{4}8b,{8}7/1,7/1,{2}1-3<4[16:3]/7-5>4[16:3],
{8}2-6[8:1],2,8-4[8:1],8,5-1[8:1],5,{32}1x,8x,7x,6x,5x,4x,3x,2x,
{8}1bx,2,7/3,6,8bx,7,2/6,3,
{16}4h[16:3],{32}B7,C,{8}B3,{16}5h[16:3],{32}B2,C,{8}B6,8<5[8:1],1>4[8:1],{32}A8,A7,A6,A5,A1,A2,A3,A4,
{8}7b-2[8:1],2<8[8:1],{4}7-5[8:1],7x>2b[4:1],{8}3,4,
{4}5-3[8:1],5-7[8:1],5w1[8:1],5x,
{8}7b/3b,{16}7x,8,1,2,3,4,2x,3,4,5,6,7,8,1,
{8}7b,{16}4,5,{8}4,4h[16:3],{32}3b,2,1,8,7,6,5,4,3,2,1,8,7,6,5,4,
{4}3/2b,{8}3/2,1/4,{2}5b/8v5[8:1],
{4}6/7b,{8}6/7,8/5,{2}4b/1v4[8:1],
{8}2h[16:1],{32}B2,C,B6,A6,{8}1h[16:1],{32}B1,C,B5,A5,{8}8h[16:1],{32}B8,C,B4,A4,{8}7h[16:1],{32}B7,C,B3,A3,
{16}1,2,3/8,7,6/2,3,4/7,6,5/2h[32:1],3h[32:1],7h[32:1],6h[32:1],1h[32:1],2h[32:1],3h[32:1],4h[32:1],
{8}5h[16:1],5h[16:1],3h[16:1],3h[16:1],6h[16:1],6h[16:1],4h[16:1],4h[16:1],
8bh[16:1]/7bh[16:1],{16}1/6,2/5,{4}3h[8:1]/4h[8:1],{8}1bh[16:1]/2bh[16:1],{16}8/3,7/4,{32}6x,5x,4x,3x,2x,1x,8x,7x,
{8}6bx,{16}2,1,{8}2h[16:1],{16}7,8,{8}7h[16:1],{16}3,4,{8}3h[16:1],{16}6,5,
{8}6bh[16:1],5/7h[16:1],4/8h[16:1],3/1h[16:1],2xh[16:1],{32}B3,B4,B5,B6,{8}7xh[16:1],{32}A6,A5,A4,A3,
{4}1b,{8}2/8,2/8,{2}8-6>5[16:3]/2-4<5[16:3],
{8}7-3[8:1],7,1-5[8:1],1,4-8[8:1],4,{32}8x,1x,2x,3x,4x,5x,6x,7x,
{8}8bx,7,2/6,3,1bx,2,7/3,6,
{16}5h[16:3],{32}B2,C,{8}B6,{16}4h[16:3],{32}B7,C,{8}B3,1>4[8:1],8<5[8:1],{32}A1,A2,A3,A4,A8,A7,A6,A5,
{8}2b-7[8:1],7>1[8:1],{4}2-4[8:1],2x<7b[4:1],{8}6,5,
{4}4-6[8:1],4-2[8:1],4w8[8:1],4x,
{8}2b/6b,{16}2x,1,8,7,6,5,7x,6,5,4,3,2,1,8,
{8}2b,{16}5,4,{8}5,5h[16:3],{32}6b,7,8,1,2,3,4,5,6,7,8,1,2,3,4,5,
{4}6/7b,{8}6/7,8/5,{2}4b/1v4[8:1],
{4}3/2b,{8}3/2,1/4,{2}5b/8v5[8:1],
{8}7h[16:1],{32}B7,C,B3,A3,{8}8h[16:1],{32}B8,C,B4,A4,{8}1h[16:1],{32}B1,C,B5,A5,{8}2h[16:1],{32}B2,C,B6,A6,
{16}8,7,6/1,2,3/7,6,5/2,{32}3,4/7h[32:1],,6h[32:1],,2h[32:1],,3h[32:1],,8h[32:1],,7h[32:1],,6h[32:1],,5h[32:1],{16},2b,
3,2,3,1,4,1,4,8,5,8,5,1,4,1,4,
2,3,2,3,1,4,1,4,8,5,8,5,1h[32:1],2h[32:1],3h[32:1],4h[32:1],
7b,6,7,6,8,5,8,5,1,4,1,4,8,5,8,5,
7,6,7,6,8,5,8,5,1,4,1,4,8h[32:1],7h[32:1],6h[32:1],5h[32:1],
3b,5,3,5,2,6,2,6,1,7,1,7,2,6,2,6,
3,5,3,5,2,6,2,6,1,7,1,7,{32}B2,B3,B4,B5,B6,B7,{16},6b,
4,6,4,7,3,7,3,8,2,8,2,7,3,7,3,
6,4,6,4,7,3,7,3,8,2,8,2,{32}B7,B6,B5,B4,B3,B2,{16},,,,,{32}8x,
7x,6x,5x,1x,2x,3x,4x,8x,7x,6x,5x,1x,2x,3x,4x,8x,7x,6x,5x,1x,2x,3x,4x,
8x,7x,6x,5x,1x,2x,3x,4x,8x,7x,6x,5x,1x,2x,3x,4x,8x,7x,6x,5x,1x,2x,3x,4x,8x,7x,6x,5x,1x,2x,3x,4x,
8bx,7bx,6bx,5bx,1bx,2bx,3bx,4bx,8bx,7bx,6bx,5bx,1bx,2bx,3bx,4bx,8bx,7bx,6bx,5bx,1bx,2bx,3bx,4bx,8bx,7bx,6bx,5bx,1bx,2bx,3bx,4bx,
8bx,7bx,6bx,5bx,1bx,2bx,3bx,4bx,8bx,7bx,6bx,5bx,1bx,2bx,3bx,4bx,8x,7x,6x,5x,4x,3x,2x,1x,E1,E8,E7,E6,E5,E4,E3,E2,
{1}D1f/A1/A8,
E
