&title=[忙] ぱぴぷぴぷぴぱ
&artist=立秋 feat. ころねぽち
&first=0
&des=Holinality
&clock_count=4
&lv_5=13+
&lv_7=12
&inote_5=(200)
{4}
,,,,
{16}
,,,,,,,,
1x,,1x,,1x,,1x,,
1x/7-3[8:1],,,,7/2-5[8:1],,,,
8-4[8:1]/2,,,,3-6[8:1]/8,,,,
7-2[8:1]/3,,,,1-4[8:1]/7,,,,
5-8[8:1]/1,,,,2-4[8:1]/5,,2,,
6-1[8:1]/2,,,,2-5[8:1]/6,,,,
8-4[8:1]/2,,,,1w5[8:1]/8,,,,
1b,,,,,,,,
3h[4:1]/6h[4:1],,,,,,,,
{16}
2/4,,3,,4/6,,5,,
2/4,,3,5,4,,4,,
7,,6,,5/3,,4,,
7/5,,6,4,5,,5,,
2,,3,,4/6,,5,5,
3,,3,,2/4,,3,,
5-1[8:1],,,,3-7[8:1]/5,,,,
3/8w4[8:1],,,,8b,C,,,
&inote_7=(200)
{4}
,,,,
{16}
,,,,,,,,
1x,,1x,,1x,,1x,,
1x/7-3[8:1],,,,7/2-5[8:1],,,,
8-4[8:1]/2,,,,3-6[8:1]/8,,,,
7-2[8:1]/3,,,,1-4[8:1]/7,,,,
5-8[8:1]/1,,,,2-4[8:1]/5,,2,,
6-1[8:1]/2,,,,2-5[8:1]/6,,,,
8-4[8:1]/2,,,,1w5[8:1]/8,,,,
1b,,,,,,,,
3h[4:1]/6h[4:1],,,,,,,,
{16}
2/4,,3,,4/6,,5,,
2/4,,3,5,4,,4,,
7,,6,,5/3,,4,,
7/5,,6,4,5,,5,,
2,,3,,4/6,,5,5,
3,,3,,2/4,,3,,
5-1[8:1],,,,3-7[8:1]/5,,,,
3/8w4[8:1],,,,8b,C,,,
