&title=I Swear
&artist=sweet ARMS
&first=0
&des=Kyono Natsumi
&lv_4=11
&inote_4=(168){1},
{8}2h[4:1],,4h[4:1],,3,,5,,
{8}3,6,4,5,3h[4:1],,5h[4:1],,
{8}4,,6,,4,7,5,6,
{8}5h[4:1],,6h[4:1],,5,,4,,
{8}6,3,5,4,6h[4:1],,4h[4:1],,
{8}5,,3,,5,2,4,3,
{8}6h[4:1],,4-7[8:1],,5-2[8:1],,3h[4:1],,
{8}6,2,7,7,3h[4:1],,5-2[8:1],,
{8}4-7[8:1],,6h[4:1],,3,7,2,2,
{16}1,8,1,8,1,8,1,8,{16}1,8,1,8,1,8,1,8,
{8}1bpp4[4:3],,,,,,,,
{8}8,,1qq6[2:1],,,,2,,
{8}1b>8[8:6],,,,,,,{32},,,,
{8}5p2[2:1],,,,4,,,,
{8}3b>4[8:6],,,,,,,{32},,,,
{8}7p4[2:1],,,,,,,,
{8}24,,,57,,,81,{32},,,,
{8}6q3[4:1],,,,2q7[4:1],,,,
{8}5,,3,,7,,4,,
{8}6,,2,,4h[4:1]/7h[4:1],,,,
{8}2h[4:7]/5bqq1[4:6],,,,,,,,
{8},,,,,,,,
{8}4,,6,,2,,5,,
{8}3,,7,,5h[4:1]/2h[4:1],,,,
{8}1h[4:7]/7bqq3[4:6],,,,,,,,
{8},,,,,,,,
{8}5^8[4:1],,4,,4>1[4:1],,8,,
{8}8^5[8:2],,1,,1^4[4:1],,5h[4:1],,
{8},,5-7[8:1],5-1[8:1],,,8-6[8:1],8-4[8:1],
{8},,5<4[8:3]*p4[8:3],5,,,,,
{8}3h[4:1],,5h[4:1],,2,2,4h[4:1]/6,,
{8}6h[4:1],,4h[4:1],,7,7,5h[4:1]/3,,
{8}1pp4[1:1],,5q8[4:3],5,,,,,
{8},,,,,6qq5[4:1],,,
{8},2qq1[4:1],,,,5p4[4:2],,,
{8},1,2,3,,2pp4[4:1],,,
{8},6pp8[4:1],,,,2q3[4:2],,,
{8},6,7,8,,1^6[4:1],2,3,
{8},5^2[4:1],6,7,,7,8,1s5[3:1],
{8},2,3,4,,,3h[4:1],,
{8}5,5h[4:1],,2h[4:1],,7h[4:1],,4h[8:3],
{8},,5<4[16:6],,3,,,,
{8}3,3,5,5,4,4,6,6,
{8}18,27,36,45,,{32}3,,5,,3b,,,,,,,,
{8}4-1[8:1],4,5-8[8:1],5,2-6[8:1],2,7-3[8:1],7,
{24}4b-1[8:1],,,{8},5,6pp4[8:3],,4,3,2h[8:3],
{8},,4-1[8:1],,3-8[8:1],,{24},,,7,,,
{8},46,5-1[8:1],4,3-7[8:1],,,,
{8}5-8[8:1],5,4-1[8:1],4,7-3[8:1],7,2-6[8:1],2,
{24}5b-8[8:1],,,{8},4,3qq5[8:3],,5,6,7h[8:3],
{8},,5>2[8:1],,6^1[8:1],,3,,
{8}37,26,1pp1[8:3]/5pp5[8:3],48,{16},,,,,,,,
{8}3-8[8:1],3,6-1[8:1],6,2-5[8:1],2,7-4[8:1],7,
{24}3b-8[8:1],,,{8},5,6pp1[8:3],,2,3,4h[8:3],
{8},,2-5[8:1],,3-6[8:1],,{24},,,7,,,
{8},53,4^1[8:1],5,6^1[8:1],,,,
{8}6-1[8:1],6,3-8[8:1],3,7-4[8:1],7,2-5[8:1],2,
{24}6b-1[8:1],,,{8},4,3qq8[8:3],,7,6,5h[8:3],
{8},,4v1[8:1],,5v8[8:1],,2,,
{8}62,73,8qq8[8:3]/4qq4[8:3],51,{16},,,,,,,,
{8}4-1[8:1],,8-5[8:1],,4-1[8:1],,8-5[8:1],,
{8}4-1[8:1],,8-5[8:1],,4b-1[8:1],,,,
{8}5>5[2:1],,1,,5,,1,1,
{8},6,6,2p6[8:1]*q6[8:1],2b,,,,
{8}3-1[8:1],,8-6[8:1],,3-1[8:1],,8-6[8:1],8,
{8},3-5[8:1]*-1[8:1],3,,,,28,,
{32}5,,,,1-5[8:1],,,,{8},6b-1[8:1],,2b-6[8:1],,5bpp5[8:15]*qq5[8:15],
{8},,,,,,,,
{1},,
E
