&title=Name of oath
&artist=void (Mournfinale) feat. コツキミヤ (Gt.えば)
&first=-1.16
&des=Fire of ZEUTR0N
&lv_5=14
&des_5=Fire of ZEUTR0N
&inote_5=
(174){4},,,,B1,
B1,{16}1x,2,3,4,5,6,7,8,
{4}2/1bxp5[8:1],{8}1,2-6[8:1],,2x/1xV75[8:1],{4}8,
4-8[8:1],{8}4/2,3>1-5[4:1],,3,{4}6,
7/8-4[8:1],{8}8,7p3[8:1],,7,{4}8w4[8:1],
{2}8b,{16}4x,3x,2x,1x,8x,7x,6x,5xv8[8:1],
,,,5/1,,3qq5[4:1],,,,3/5<8[8:1],,,,7x,,,,5xh[16:7],
,,,,,,,,{8}5/4,6/3,2/7,
{4}8/1-6[8:1],{8}1/2,2-5[8:1],,2/1<6[16:3],,6qq1[8:3],
,,,,,,1/8-5[8:1],2/7,
3,4-1[8:1],3,4/7p7[4:1],,7<7[8:5]/4-1b[8:1],,4b,
,,,,,,1/8,3/6,
2/7,{16}4,5,{8}4,6/3qq3[4:1],,7-4b[8:1]/3<2[2:1],,7b,
,,,,,6,7<5[8:1],8/2,
{4}3>1[8:1],{8}3/7,5-8[8:1],,4/5-2[8:1],,6/5pp1[8:3],
,5,,,,3,2>4[8:1],1/7,
{4}6v5[8:1],{8}6/2,1<6[4:1],,6p2[4:1],,2<5[8:3],
,5,,,,,1/8-5[8:1],2/7,
3,4-1[8:1],3,4/7pp4[8:3],,,{4}4>8[4:1],
{8}3,{16},,,,4/7,5,6,7,8,1,{4}2b/6b-2[8:1],
6/7,{8}8/1,2,3/4,{16}4,5,4,5,4,5,
4,6,5,7,4,6,5,7,4,8,3,1,{4}2bqq6[8:7],
{16}2/8,,,,,,,,,,,7x,8x,1xh[8:5],,,,,,,,,,,{4}5-2[8:1],
5h[4:1],
1xs5[8:7],{8},,,,6,5<2[4:3]*q2[4:3],
,,,,,,,,{4}3h[8:5]/Ch[2:7],
{8},,,,3-8[8:1],3,
,,,,{4}1,2,
4h[2:1],,,1,
2,3,4,4-8[8:1],
{8}4b/3b,2,1/7,{16}2,8,3,7,{8}2-5[8:1],1,2,
,,,,{4}8v5[8:1]/4-1[8:1],8/4,
{8}1b/2b,3,4/6,{16}4,7,2,5,{8}3>5[8:5],4,3,
,,,,,,,,4b/5b,
6,8/7,{16}7-4[8:1],1,6,8,{8}7,1pp5[2:1],2,
,,,,{4}8h[4:1],7h[4:1],
6h[4:3],{8},,,,5,4>4[4:3]*V28V64[4:3],
,,,,,,,,E6/B6,
{16}B5,C,{8}B1,{16}E3,E4,D5,,,E1,E8,E7,{8}E6,
{4}Ch[16:1],{16}E5,C,{8}E1,{16}E2,E3,E4,D1,D8,D7,D6,D5,
{1}Cfh[1:1],
{8},,,,6,5,4,3,
{4}2b/Cf,{8}2h[8:1],7,2h[8:1],6,{4}2h[8:1],
7/3,{8}3h[8:1],5,3h[8:1],4,{4}3h[8:1],
4/7,{8}4h[8:1],5,4h[8:1],3,4h[8:1],2,
{2}5h[4:1],{8}3h[8:1],4h[8:1],5h[8:1],6,
{4}5/7,{8}7h[8:1],B7,7h[8:1],B5,{4}7h[8:1],
8/4,{8}8h[8:1],B3,8h[8:1],C,{4}8h[8:1],
1/8,{8}1h[8:1],B5/B4,1h[8:1],E3/A3,1h[8:1],5,
{2}2h[4:1]/6h[4:1],{8}2,3,4,5,
C/6-1[8:1],6,2-5[8:1],2,8,8,7,4<7[4:1],
,7>2[4:1],,2>5[4:1],,,6-1[8:1],6,
{4}2-5[8:1],{8}2,8-4[8:1]*-6[8:1],,8,,3-6[8:1]/7-2[8:1],
,7<4[8:1]/3>8[8:1],,7b/3b,,,1>4[8:1],1,
{4}8v5[8:1],{8}8,3-1[8:1],,3/4pp8[8:3],,4,
,,{4}1-3[8:1],1/4-8[8:1],4/7-5[8:1],
7-1[8:1]*-3[8:1],7-5>4[8:1]*-4[8:1],7-1>2[8:1]*-2[8:1],7>7[4:3],
{16},,,,,,,,,,,,1,2,3,4,
{8}5/6,6,3/4,3,5/7,6,{4}3/2,
{8}8/6,7,8/1,1,3/1,2,{4}8/2,
{16}2,7,3,6,4,6,5,7,4,8,3,1,2,8,3,1,
{32}2bx,3x,4x,5x,6x,7x,8x,1x,2x,3x,4x,5x,6x,7x,8x,1x,2x/7b,6,5,4,3,2,1,8,7,6,5,4,3,2,1,8,
{4}7/4h[8:1],{8}3/6,5,4/7,{16}6,5,{8}6-1[8:1],4/5,
{4}6,{8}8x/2xp5[16:3],1,{4}6/2,{16}4x,3,2,1,
{4}6<3[16:3],{32}6,D7,D8,D1,5h[8:3]/D2,D3,,,,,,,,,,,{4}4h[4:1],
3>6[16:3],{32}3,D3,D2,D1,5h[8:3]/D8,D7,,,,,,,,,,,{4}3,
{8}1/2,3,4/5,{16}7,6,7,6,{8}7,{4}5/6,
{8}8/7,6,5/4,{16}2,3,2,3,{8}2,{4}4/3,
{8}8-4[8:1],8,7,6,5p8[8:1],5,4,3,
{16}1h,2h,8h,7h,2h,3h,7h,6h,{2}5bh[4:1]/4bh[4:1],
{8}1/3,4,5/6-1[8:1],7,6/1,2,3/8-5[8:1],4,
5/8,4,1/2-5[8:1],3,2/5,6,7/4>1[8:1],8,
1/4,8,5/6-1[8:1],7,6/2,3,8/4>8[4:1],5,
{16}8/4,7,6,5,{8}4,2b/6bh[8:5],,,,,8-4[8:1],
8,7-3[8:1],7,6-2[8:1],6,5-1[8:1],5,
4-8[8:1],4,3-7[8:1],3,2-6[8:1],2,1-5[8:1],1,
{12}3bx,2x,1x,8x,7x,6x,{16}5bx,4,3,2,1,8,7,6,
{24}5bx,4,3,2,1,8,7,6,5,4,3,2,{32}1bx,8,7,6,5,4,3,2,1,8,7,6,5,4,3,2,
{8}1b/8b,2,{16}3b,6,4,5,3,6,5,7,5,8,4,1,
3,8,2,7,{8}1,2/7h[16:1],{12}3b,1,2,6b,8,7,
{16}1bx/8h[16:3],2,3,4,{8}5,{16}6bx/5h[16:3],7,8,1,,,8,7,6,5,
{12}4b,2,3,8b,6,7,1b,3,2,8b,{48},,,,,,,,{16}1b/6h[4:1],
2,3,4,{8}5,{16}2b/7h[4:1],3,4,5,{8}6,{16}7b,6,5,4,
8b,7,6,5,{8}4,{16}7b,6,5,4,{8}3,{16}2b,3,4,5,
{12}7h[12:1],4b,4,7h[12:1],3b,3,7h[12:1],2b,2,7h[12:1],{24},3,2,1,
{12}8bh[12:1],5,6,1bh[12:1],6,5,2bh[12:1],5,6,3bh[12:1],{24},6,7,8,
{8}1b,{16}4,2,3,1,2,8,1,7,3,5,1,7,3,6,
2,8,4,7,{8}3,{16}5b/4b,6,7,8,,,{8}8/1,3/6,
{16}4/5b,3,2,1,{8}8,{16}6/3b,7,8,1,,3b,2,1,8,7,
{8}6,{16}4b,5,3,6,4,5,{24}4b,3,2,1,8,7,6,5,4,6/3,{48},,,,{16}3b,
5,1,4,{8}3,{16}6b,5,8,3,{8}6,{24}1b,8,1,8,{48}1,8,,,{24}1,
8,7,6,5,4,,,,3/8b,1,2,3,4,{12}5,{48},,,,{16}2b,7,4,5,
3b,6,1,8,3b,6,2,7,{24}1b,8,1,8,1,8,1b,2,3,{96}7,,,6,,,{32}5,4,
3,2,1,8,7,6,5,4,3,2,1,8,3bx/7b,4bx,5bx,6bx,7bx,8bx,1bx,2bx,3bx,4bx,5bx,6bx,7bx,8bx,1bx,2bx,{8}3bx,
{4}8bx,8,8,8,
1/8xh[1:1],2,3,4,
4xh[1:1],7,6,5,
3x,5,{8}1xh,7xh,5x<5[1:3],3xh,
{4}1xh,1,8,8,
7,7,6,6,
7,7,8,8,
{32}E1,E8,E7,E6,E5,E4,E3,E2,{4}Cf/E1,{8}1/8,2,3/4,5/6,
{4}4>3-1[8:1],{8}4,5-1[8:1]*-7[8:1],,5,,8-4[8:1]/2<7[8:1],
,2-6[8:1]/8-5[8:1],,8/2,,,1q5[8:1],5v2[8:1],
{4}1-7<6[8:1],{8}1,3-8[8:1]*-6[8:1],,3,,1-6[8:1]/5-2[8:1],
,1>4[8:1]/5<8[8:1],,5b/1b,,,7-4[8:1],4V61[8:1],
{4}1,{8}4,4>1[8:1],,4/8z4[4:1],,8,
,,{4}6-1[8:1],3/6-4[8:1],2/6,
1-7<6-4[4:1],4-2<1-7[4:1]*-2<1-7[4:1],7<5-3[4:1],3>7[4:1],
{1}7V53v6[2:1]*V53v1b[2:1],
6b-8-4-2b[4:15]*V84-2b[4:15],
E
