&title=混沌ブギ
&artist=jon-YAKITORY, 初音ミク -Konton Boogie
&first=0
&lv_5=13+
&des=龍龍
&inote_5=
(190){4},,,,6h[4:15],
E5,,E3/B3,
,E5,,E7/B6,
,E5/B5/B4,{2}C,
{8},E1/B8/B1,,C,,2x,{4}2x,
3h[4:7],B6,,B5/E5/A4/B4/A5,
,E7/B6,,C,
2-5[8:1],2/8,7<4[8:1],7/3,
{2}2qq4[8:3],{8}6x,5,{4}5-7[8:1]*-8[8:1],
5b-3[8:1]*-2[8:1],5,{8}6x,6,2,3,
{4}4-1[8:1]/5-8[8:1],5/4,{8}2x,2,6,5,
{4}5pp8[8:3],E4,E3/B2,{8}4,4qq1[8:3],
,E8,,E7/B6,,5,{4}5<1[4:1],
1>5[4:1],5,{8}1x,1,6,7,
{4}1v3[8:1]/8v6[8:1],1/8,{8}4,4,6,7,
{4}7p6[8:3],2,{8}1x,1x,8,8pp3[8:3]*qq5[8:3],
,,,,,,{4}Cf,
6bx<8b[8:1],6/5,6x<1[8:1],6/4,
3>1b[8:1],3/4,3x>8[8:1],3/5,
6<8b[8:1],6/5,6x-1[8:1],6/4,
2-5[8:1],2/8pp6[8:3],{8},,4,4,
{4}5-7[8:1],4-2[8:1],5-7[8:1],3x-1[8:1],
6-8[8:1],3-1[8:1],6-8[8:1],3,
2>4b[8:1],2/1,2-5[8:1],2/8,
7<5b[8:1],7/1pp4[8:3]*pp5[8:3],,,6-8v1-3[4:5],
6,5x,5,
4x,4,{2}4h[2:1],
{4}3q6[4:3],3,2x,2,
{8}1x,1,7q4[8:3],8x,,,,,{4}8>2v3<5[4:5],
8,7x,7,
6x,6,{2}6h[2:1],
{4}4,6/5,{2}6q1[4:3]*q8[4:3],
{8},,,,,,4x,5x,
2x/6-4[8:1],2,2/6,2,3x/7-4[8:1],3,3/7,3,
2x/8-4[8:1],2,2/8,2,{2}3x/6bxh[4:1],
{8}7x/3-5[8:1],7,7/3,7,6x/2-5[8:1],6,6/2,6,
7x/1-5[8:1],7,7/1,7,{2}6x/4bxh[4:1],
{8}3x/7-1[8:1],3,7/3,3,2x/6-1[8:1],2,6/2,2,
4x/5-1[8:1],4,5/4,4,{4}7bxh[4:1]/3q8[16:3],3,
E1,B7,B2,B5,
{8}4h[4:3],,,6,7,7,{4}8-2-7-5[2:3],
3x,3,4x,4,
3x,3,2x,5/1<7-2-4[2:3],
6x,6,5x,5,
6x,6,7x,8-4-1-6[2:3],
3x,3,2x,2,
3x,3,4x,5V38[8:3],
{8}7,7,6,6,5-8[16:3],5,1,1,
{1}2>6b[2:1]*q6[2:1],
{4}7b<4b[8:1],7/2,{8}1-3[8:1],8-4[8:1],1,8,
{4}2>5b[8:1],2/7,{8}8-6[8:1],1-5[8:1],8,1,
{4}7<3[4:1],3q8[4:1],B1/E2,{8}2,2>6[4:1],
,6p1[4:1],,E8/B7,,8,{4}8V64[4:1],
4V28[4:1],8,{8}4,4,7,6,
{4}4v2[8:1]/5v7[8:1],4/5,{8}1>4[8:1],8<5[8:1],1,8,
{4}2q6[8:1],8/2b,7p3[8:1],1/7b,
2qq5[8:3]*qq6b[8:3],,,4x-2[8:1]*-1[8:1],
4b-7[8:1]*-6[8:1],4b,{8}2-5[8:1],8-4[8:1],2,8,
{4}3-8[8:1]*-1b[8:1],3,{8}7-4[8:1],1-5[8:1],7,1,
{4}6>2[4:1],2q8[4:1],1,{8}3x,3<7[4:1],
,7p1[4:1],,8,,6x,{4}6V42[4:1],
2V86[4:1],6,{8}2,2,6,7,
{4}8v6[8:1]/1v3[8:1],8/1,{8}5,5,3,2,
{4}2q3[8:3],7b,{8}8,8,1x,1qq5[8:3]*pp4b[8:3],
,,,,,,{4}E8/B8/B4/E4,
{8}5/7h[8:1],4,{16}6,5,{8}6,4/2h[8:1],5,{16}3,4,{8}3,
5/8h[8:1],4,{16}6,5,{8}6,4/1h[8:1],5,{16}3,4,{8}3,
7/5,5/7,{16}6,4,{8}6,2/4,4/2,{16}3,5,{8}3,
4/6,4/6,{16}5,3,{8}5,4b/6b-8b[8:1],,,2,
{4}7bx/1-4b[8:1],3/1bx-5[8:1],1bx/6-3b[8:1],{8}2/6bx,2,
{4}1b/4-1b[8:1],4bx/2-7[8:1],{8}6/2bx,6,{4}5b/8-3b[8:1],
8bx/6-1[8:1],6bx/4-7b[8:1],{8}4bx/2-5[8:1],2,2bx/8-3b[8:1],8,
8bx/6-1[8:1],6,6bx/4s8[16:3]*v7b[16:3],4,{2}4b,
{1}1>6[4:5],
B7,
{4}7xh[2:1],E6,E5,{8}2x,2xh[2:1],
,E4,,E5,,6x,{4}7x,
{1}3/8-3[2:1],
4/2-5[2:1],
6-4z8[4:3],
{4}5pp2[8:3]*pp1b[8:3],,,8x-5[8:1]/7x-4b[8:1],
8b-3b[8:1]/7b-2[8:1],8b/7b,{8}4v1[8:1],1-7[8:1],4,2,
{4}3v6b[8:1],1/3b,{8}5v8[8:1],8-2[8:1],5,7,
{4}6>1[4:1],1-4-6[4:1],6,{8}3x,3x<8[4:1],
,8-5-3[4:1],,3,,8,{4}8qq6[8:1]*-5b[8:1],
8b-3b[8:1]*pp2[8:1],8b,{8}4v1[8:1],1-6[8:1],4,2,
{4}3v6b[8:1],8/3b,{8}5v8[8:1],8-3[8:1],5,7,
{4}6b-2b[8:1],6b/4v7b[8:1],8/4b,1b>4[8:1]*<6[8:1],
1qq6[8:3]*qq5b[8:3],,,4x-1[8:1]/3x-8b[8:1],
4b-7b[8:1]/3b-6[8:1],4b/3b,{8}8v5>4-2[4:1],6,8,7,
{4}1<6b[8:1],2/1b,{8}4v1<8-6[4:1],2,4,3,
{4}2x>5b[8:1],2b/7>2[8:1],7b,{8}4,3/7<4b[8:1],
,7b/2<7[8:1],,2b,,4x,{4}4qq2[8:1]*-1b[8:1],
4b-7b[8:1]*pp6[8:1],4b,{8}8v5>3-1[4:1],6,8,7,
{4}8<5b[8:1],2/8b,{8}4v1<7-5[4:1],2,4,3,
{4}2v5[8:1]*v7b[8:1],2b,{8}8x,8xh[4:1],,5h[4:1],
,7x,4>1[8:1],3,4/8-5b[8:1],7,{4}8,
Cf/2>6[4:1],6<2b[4:1],2q7[4:1],6,
5-1b[8:1],{8}5,2xh[4:1],,7-3[8:1],1,7,
{4}8>4[4:1],4<8b[4:1],8q5[4:1],4,
6-2b[8:1],{8}6,3qq7[8:3],,,,,{4}6x>2[4:1],
2<6b[4:1],6p2[4:1],2,
1<6b[8:1],{8}1,5h[4:1],,4-8[8:1],6,4,
5<8[8:1],6,5/1-4b[8:1],2,{4}1/6-1[8:1],{8}6,3h[4:1],
,4,,7h[4:1],,6,{4}6-2b[8:1],
{1}7bh[2:3],
{4},,,6-2b[8:1],
{1}8bh[1:1],
{8},,,,2,3,{4}4/6,
6-8b[8:1],5/6,6x-1[8:1],6/4,
3-1b[8:1],3/4,3x-8[8:1],3/5,
{8}6-2b[8:1],6,1-5[8:1],1,8-4b[8:1],8,3-7[8:1],3,
5<8b[8:1],5,1>4[8:1],1,6,6,{4}5w1b[8:1],
{1}5b,
{4}7x-2[2:1],E7,E6,E5,
3x-6[2:1],E3,E2,E1,
7xs3[2:1],6x,5x,{8}4w8b[8:1],4,
,,,,,,,,{4}B2,
B4,B6,B8,
B3,B5,B6,E4,
{1}Ch[8:7],
E
