&title=サラマンドラの踊り子
&des_4=NekoMuseigen
&des_5=NekoMuseigen
&des=NekoMuseigen
&artist=葉月ゆら
&wholebpm=127
&first=0
&MusicStart=47.2
&MusicEnd=68
&lv_1=2
&lv_2=6
&lv_3=9
&lv_4=11
&lv_5=12
&inote_1=(127)
{1},
{1}
1,1,2,2,1,1,2,4-1[8:3],
8,8,6,6,4,4,2,1b-4[8:3],
8,7,{2}6,6,{1}5,4,3,{2}2,2,{1}1,
{2}2b,2,3,,8,8,7,,3,3,4,,6,6,5,,
{2}7,7,8b-4[8:4],,,,3,,7,,8,,2,,1,,
{1}4,6,6-1[8:3],
{2}8,8,6,,5,5,3,,1,1,4,,7,7,8b<4[4:2],,
,,
12,,34,,56,,78,,
24,,64,,68,,8b,,
2,2,34,,5,5,64,,1,1,34,,4,4,56,,
1,2,3,4,5<1[8:3],,
{2}2,2,4,4,7,7,8,8,
1,1,2,2,3,4,5,6,
7b-3[8:8],,,,
&inote_2=(127)
{1},
{2}
8,1,2,3,4,5,5<8[8:3],,
1,8,7,6,5,4,4>1[8:3],,
78,6,1-4[8:3],,78,1,6-3[8:3],,
34,2,5-8[8:3],,34,5,6b/2-7[8:3],,
{4}
45,3,45,,78,1,78,,
45,3,12,,1-6[8:3]/2-5[8:3],,,,
54,6,54,,21,8,21,,
54,6,87,,8b-3[8:3]/7b-4[8:3],,,,
{8}
25,,1-4[8:2],6,,,,,
74,,8-5[8:2],3,,,,,
38,,4-1[8:2],7,,,,,
61,,5-8[8:2],2,,,,,
{4}
18,27,36,,45,36,27,,
12,83,74,,78,61,25,,
45,3,45,6,45,2,45,7,
1b-4[8:3]/8b-5[8:3],,,,
25,4,3,4,36,4,5,4,
74,6,5,6,36,5,4,5,
74,5,6,5,36,5,4,5,
25,3,4,3,45,36,1b/8b,,
{2}
2-5[8:2],8,6-1[8:2],,
7-4[8:2],1,3-8[8:2],,
3>8[8:2],5,7<4[8:2],3,
6<1[8:2],4,2>5[8:2],1<6[8:2],
3b<6[8:4]*>8[8:4],,
{4}7h[4:2],,8,,5h[4:2],,3,,4h[4:2],,5,,2h[4:2],,1,,
2h[4:2],4,4,,7h[4:2],5,5,,1h[4:2],3,3,,8h[4:2],6,5b,,
{8}
61,,5<8[8:2],2,,,,,
38,,4>1[8:2],7,,,,,
74,,8<5[8:2],3,,,,,
25,,1>4[8:2],6,,,,,
{4}
54,63,72,,81,72,63,,
56,47,38,,34,25,61,78,
81,7,81,2,81,56,81,34,
5b-8[8:3]/4b-1[8:3],,,,
24,3,24,,75,6,75,,
13,2,13,,68,7,68,,
34,2,34,5,56,7,56,4,
34,2,18,7,56,,{12}1,8,1,{4}8,
2bqq5[8:14]/7bpp4[8:14],,,,,,,,
&inote_3=(127)
{1},
{4}3h[4:1],4,2,,6h[4:1],5,7,,
3h[4:1],4,1,,6-2[4:1],,,,
{8}3h[8:3],,4,4,2,,,,6h[8:3],,5,5,7,,,,
2h[8:3],,4,4,1,,,,6b/7b,,,18,1b/8b,,,,
25,,3,4,25,,,,74,,6,5,74,,,,
24,,3,3,1,,,,75,,6,6,8,,,,
38,,2,1,38,,,,61,,7,8,61,,,,
31,,2,2,4,,,,6b/8b,,7b-3[8:2]/5b,,,,,,
2h[4:1],,1,2,38,,45,,7h[4:1],,8,7,61,,45,,
2-4[8:1],,7-1[8:1],,2>5[8:2],,,,
7h[4:1],,8,7,16,,34,,
6h[4:1],,5,6,74,,12,,3h[4:1],,4,3,25,,78,,
6-8[8:1],,3-5[8:1],,6<1[8:2],,,,
3h[4:1],,4,3,5b-7[8:1]/2b-4[8:1],,,,
{8}
18,2,34,34,5,6,7,,
81,7,65,65,4,3,2,,
18,2,4,3,45,6,5,,
81,7,5,6,54,3,4b,,
78,6,45,45,3,2,1,,
78,61,25,34,3-1[8:1]/4-6[8:1],,,,
3h[8:1],4,6,,6h[8:1],5,3,,
2h[8:1],4,3,,7h[8:1],5,6,,
3h[8:1],4,1,,6h[8:1],5,8,,
1>5[8:3]/8,,,,
6,,6,,7b<3[8:3]*>3[8:3],,,,,,,,
7-5[8:1],,2-4[8:1],,8,,,,
7-5[8:1],,2>4[8:1],,8,,,,
7<5[8:1],,2-4[8:1],,8,,,,
7<5[8:1],,2>4[8:1],,8,,,,
8-5[8:1],,2-4[8:1],,8,,,,
8-5[8:1],,2>4[8:1],,8,,,,
8<5[8:1],,2-4[8:1],,8,,,,
8<5[8:1],,1>4[8:1],,8b,,,,
25,3,4,5,6,5,4,3,2/1<5[8:2],,,,4h[4:2],,,,
5,34,24,,64,35,24,,75,64,53,,75,63,2,,
84,7,6,5,4,5,6,7,2/8<4[8:2],,,,3h[4:3],,,,
4,5,6h[8:2],,4,63,25,,
2b-7[8:1]/4b,,5,,5b-8[8:1],,1,,
3,4,25,16,{12}7,8,7,{4}8,
{4}
1>6[8:4]/6,,,,8<3[8:4]/3,,,,
5<2[8:4]/2,,,,4>7[8:4]/7,,,,
5h[4:1]/7,8,4h[4:1]/2,1,
5h[4:1]/6,8,4h[4:1]/3,1,
5h[4:1]/7,6,4h[4:1]/2,3,
4b-1[8:2]/5b-8[8:2],,,,
{8}
54,6,78,78,1,2,3,,
45,3,21,21,8,7,6,,
54,6,8,7,81,2,1,,
45,3,1,2,18,7,8b,,
34,2,81,81,7,6,5,,
34,25,61,78,7-5[8:1]/8-2[8:1],,,,
7h[8:1],8,2,,2h[8:1],1,7,,
6h[8:1],8,7,,3h[8:1],1,2,,
7h[8:1],8,5,,2h[8:1],1,4,,
5<1[8:3]/4,,,,
2,,2,,3b>7[8:3]*<7[8:3],,,,,,,,
{8}3h[8:3],,4,4,25,,78,,6h[8:3],,5,5,74,,12,,
2h[8:3],,3,4,51,,68,,6b/7b,,,,1b/8b,,,,
25,3,4,3,25,25,34,,74,6,5,6,74,74,65,,
61,2,34,,38,7,65,,6b-1[8:1]/1b,,,,3b-6[8:1],,1b,,{1}1qq6[8:14]*pp4[8:14],,
&inote_4=(127)
{1},
{16}
2h[16:8],,,4,,,,,5h[16:8],,,3,,,,,4h[16:8],,,6,,,,,7h[16:8],,,5,,,,,
1h[16:8],,,8,,,,,6h[16:8],,,2,,,,,3-7[8:1],,,,,,,,5-8[8:1],,,,,,,,
8/3h[16:6],,,5,,,7,,1/6h[16:6],,,4,,,2,,8/2h[16:6],,,5,,,7,,1/7h[16:6],,,4,,,2,,8/1h[16:6],,,6,,,7,,3/8h[16:6],,,4,,,5,,3b,,,6b,,,3b,,
{12}45,45,45,{16}3b/6b,,,,
25,,3,,4,,5,,6h[8:3],,,1,,,1,,3h[8:3],,,8,,,8,,7<4[4:1],,,,,,
,,2q6[8:2],,,8,,,8,,7p3[8:2],,,1,,,1,,2>5[8:2],,,8,,,8,,7>2[8:2],,,,,,,,
4,,6,,5,,4,,3h[8:3],,,1,,,1,,6h[8:3],,,8,,,8,,1>4[4:1],,,,,,
,,8p4[8:2],,,1,,,1,,3<6[8:2],,,8,,,8,,7<4[8:2],,,,2,,,2p6[16:3]*pp4[16:3],,,,,,,,,
{8},4,4,4,4h[8:4],,7,7,7h[4:2],2,2,2,2>5[4:1],,,,
8h[4:1],,6h[16:4],,5,5,5-1[4:1],,3h[4:2],,,{16}8,,8,,,,4b,5b,4b,5b,
{8}4h[8:4],6,6,6,6h[8:4],,3,3,3h[4:2],8,8,8,8h[16:8],,,{16}4,,
{8}5bv2[8:1],,{16}8b<4[8:1],,,,3bqq7[16:6],,,6,,,6,,6h[16:8],,,,,,1,,
1w5[8:1],,,,,,,,
{16}
7,8,7h[8:1],,1,,43,,5<8[8:1],,3,,3,,,,
2,1,2h[8:1],,8,,56,,4>2[16:2],,7,,7h[8:1],,,,
4,5,4,,7,2,7h[8:3],,3,,4,,5-1[8:1],,,,
6-2[8:1],,6,,5-3[8:1],,5,,7-1[8:1],,7,,4b,,,,
6,5,6h[8:1],,2,,18,,2-6[8:1],,5,,5,,,,
3,4,3h[8:1],,7,,18,,2>4[8:1]/7<5[8:1],,,,,,
,,28,,37,,6,4,6,,17,,26,,3,5,3,,17,,28,,13,,8,8-4[8:1],,,
1,,2,,3,,64,,37,,2,8,2,,53,,26,,7,1,7,,5/3qq4[4:1],,,,,,,,
8qq1[8:2],,,2,,,3,,{12}4,4,4,45,45,45,{16}4-1[8:1]/5-8[8:1],,,,,,,,
4h[8:1]/5h[8:1],,,6h[8:1]/5h[8:1],,,4h[8:4]/5h[8:4],,,,,,,,,,
4h[8:1]/5h[8:1],,,6h[8:1]/5h[8:1],,,4h[8:4]/5h[8:4],,,,,,,,,,
4h[8:1]/5h[8:1],,,4h[8:1]/3h[8:1],,,4h[8:4]/5h[8:4],,,,,,,,,,
4h[8:1]/5h[8:1],,,4h[8:1]/3h[8:1],,,4/5,,36,,2,7,1,8,1,8,
1h[16:11],,7,7,,6,,5,,4,,5,,1,1,,
8h[16:11],,2,2,,3,,4,,5,,4,,8,8,,{16}61,,5,5,,3,4,3,4,3,,25,,1,1,,
28,,7,7,,4,5,4,3-7[8:1]/6-2[8:1],,,,,,,,
{16}
4b/5b,,2,12,,83,,4-8[8:1]/7,,,5,,6,,7,,7h[16:6],,1,1h[16:3],,,,,71,,1,,8,,72,,8<5[8:1],,,1,,,1,,2>5[8:1],,,6,,,6,,7v4[16:4],,,,,,3,3h[16:5],,,,,1b,,,,
65,,7,78,,16,,5-1[8:1]/2,,,4,,3,,2,,2h[16:6],,7,7h[16:5],,,,,1,,86,,17,,82,,3h[16:6]/1,,,,,,5,5,3,,,12,,,78,,
6b,5,6,5b,6,5,6b,,3b,4,3,4b,3,4,3h[8:1],,,8,7,6,5,4,3,2,
{12}18,81,18,{16}1b/8b,,,,
6,,6pp1[8:5],,,,,,,,,,,,,,
2,,2pp5[8:5],,,,,,,,,,,,,,
8,,8qq4[8:5],,,,,,,,,,,,,,
1,,1z5[8:3]*s5[8:3],,,,,,,,,,,,,,
{4}8pp8[4:1],,4pp4[4:1],,1qq1[4:1],,5qq5[4:1],,
{16}8p4[16:2],,,,2,,2,,1>4[16:2],,,,7,,7,,
{16}4h[8:1]/6h[8:1],,,3h[8:1]/5h[8:1],,,24,,3,4,3,4,2,5,2,5,
{16}
1,6,1,,45,,87,,1>4[8:1],,7,,7,,,,
6,8,6,,54,,12,,8<6[16:2],,3,,3h[8:1],,,,
8,1,8,,3,6,3h[8:3],,7,,8,,1-5[8:1],,,,
2-6[8:1],,2,,1-7[8:1],,1,,3-5[8:1],,3,,8b,,,,
2,7,2,,18,,54,,6-2[8:1],,1,,1,,,,
7,2,7,,65,,54,,4-8[8:1]/3>1[8:1],,,,,,
,,64,,73,,2,8,2,,53,,62,,7,1,7,,53,,64,,57,,4,4-8[8:1],,,
5,,6,,7,,28,,73,,6,4,6,,17,,62,,3,5,3,,1/7qq8[4:1],,,,,,,,
4qq5[8:2],,,6,,,7,,{12}8,8,8,81,81,81,{16}8-5[8:1]/1-4[8:1],,,,,,,,
3b/6b,,6,5,6,,3,4,3,,6,5,7,,3,4,2,,
6,5,8,,3,4,1,,6,4,8,,3,5,1,,7,5,6,,2,4,3,,6,5,6,,3,4,3h[16:12],,,,,,,,5-1[8:1],,,,,,,,
83,,6,5,6,,2,,36,,3,4,3,,8,,47,,6,5,6,,1,,25,,3,4,3,,6,,
4b/8b,,7,5,7,,2,,1b/5b,,2,4,2h[16:2],,7,,1b/5b,,,2b/6b,,,3b/7b,,
{12}54,54,54,{16}3b/6b,,,,
{4}1pp4[8:7]/5pp8[8:7],,,,,,,,,,,,,,
&inote_5=(127)
{1},
{16}
6,,4,5h[16:5],,,,,2,,4,3h[16:5],,,,,7,,5,6h[16:5],,,,,1,,4,3h[16:5],,,,,
8,,5,6h[16:5],,,,,8,,4,3h[16:5],,,,,7pp3[8:3],,,,,,,,4-1[8:1],,,,4b,,,,
83,,6,5h[16:3],,,7,,25,,3,4h[16:3],,,1,,74,,6,5h[16:3],,,1,,25,,3,4h[16:3],,,8,,
64,,5,5h[16:3],,,2,,53,,4,4h[16:3],,,7,,6h[16:6]/5b,,,3b,,,1b,,
{12}7-3[8:1]/8-4[8:1],78,78,{16}78,,,,
25,,3,5,4,,6,,8h[8:1]/2,,1,8,,,7,,6/4h[8:1],,5,4,,,3,,6h[8:1]/2,,1,6,,,
2,2,5pp7[16:3],,,3,,,4,,5qq3[16:3],,,7,,,6,,5v8[8:1],,,3,,,4h[8:1],,6,4,5,3,4,2,5,3,
4b/7b,,6,4,5,,3,,1h[8:1]/7,,8,1,,,2,,3/5h[8:1],,4,5,,,7,,4h[8:1]/6,,5,4,,,
3,3,8v5[16:3],,,2,,,1,,8pp2[16:3],,,7,,,6,,5b>2[16:2],,,,8b<5[16:2],,,,,2,3,4,,54,,,
{8}4v5[8:2],6,6,6,6q3[8:2],,2,2,2<7[4:1],6,6,6,6p4[4:1],,,,
1>4[4:1],,4qq8[16:6],,7,7,7<3[4:1],,3q8[4:1],,,{16}2,2,2h[8:4],,,,8,8,8,8,
{8}8v3[8:2],4,4,4,4v7[8:2],,5,5,5p8[4:1],1,1,1,1p4[16:4],,,{16}6,6,
{8}6q2[8:1]*<1[8:1],,{16}6>3[8:1],,,,6pp1[16:5],,,2,,,3,,4h[16:7],,,,,,8,8,
4,7b,5,6,3,4b,2,5,
{16}
1,1,7,,2pp4[16:2],,4>8[16:3],,2,,6,,6h[8:2],,,,
1,1,4,,6pp6[16:4],,3,,6>3[16:2],,2,,2h[8:2],,,,
4,4,2,,8,8,5,,4qq5[4:1],,6,,4,,,,
8,8,3,,6-8[8:1],6,4-2[8:1],,6bv1[8:1],,4b,,6b,,,,
2>5[8:1],,1,,7p3[8:1],,8,,2>5[8:1]*q6[8:1],,1,,,,,,
8,8,2,,5<4[16:5],,1h[8:3],,5,,,,,,
1,,2b/8,,5/3-1[16:2],,7,7,3,,8b,,4/6-8[16:2],,2,2,6,,4b,,7,,1/3h[16:6],,8,8,,,
7h[8:2],,5,,5,,6b/4b,,7h[16:3],,2,1,8,,5b/3b,,2h[16:3],,7,8,1,,5b/3bqq4[4:1],,,,,,,,
8qq1[8:2],,,2,,,3,,{12}4,4,4,73,73,73,{16}6pp7[8:1]/2pp3[8:1],,,,,,,,
4h[8:1]/5h[8:1],,,6h[8:1]/5h[8:1],,,45,4,{12}7,3,8,2,1,3,{16}
4h[8:1]/5h[8:1],,,6h[8:1]/5h[8:1],,,4/5,,,7,1,8,2,2,6,3,
4h[8:1]/5h[8:1],,,4h[8:1]/3h[8:1],,,45,,2,8,1,1,7,4,6,6,
4h[8:1]/5h[8:1],,,4h[8:1]/3h[8:1],,,45,,36,,7,7,1,8,1,8,
2b/7b,,3,4,2,,6,5,6,5,,28,,3,4,,
17,,6,5,7,,3,4,3,4,1h[16:4],,{24}3,4,5,{16}6,,61,,3,24,,7,8,7,8,5,,46,,3,42,,
18,,6,5h[8:1],,7,5,6,{24}1,8,1,8,1,8,1,8,1,8,1,8,
{16}
1b,,6,56,,4pp7[8:3]/7,,83,,,1,,2,,3,,3h[16:6],,5,5h[16:3],,,,,34,,5,5,4,,36,,4>1[8:1],,,5,4,,8,,4p8[8:1],,,5,4,,7,,4qq7[16:5],,,,,,8<4[16:3]*>4[16:3],8,,,,,,,,,
21,,3,34,,5qq2[8:3]/2,,16,,,8,,7,,6,,6h[16:6],,3,3h[16:5],,,,,5,,42,,5qq1[16:5]/3,,46,,7h[16:5]/5,,,,,,7,7,6h[8:1]/8h[8:1],,,1h[8:1]/5h[8:1],,,24,,
3b,5,4,6b,4,5,3b,,7b,4,5,2b,5,4,7b,65,,1,3,2,7,5,6,3,
{12}5-1[8:1]/4-8[8:1],45,54,{16}54,,,,
2,2,2pp5[8:5],,,,,,,,,,,,,,
6,6,6pp1[8:5],,,,,,,,,,,,,,
4,4,4qq8[8:5],,,,,,,,,,,,,,
5,5,5z1[8:3]*s1[8:3],,,,,,,,,,,,,,
{4}4pp4[4:1],2,8pp8[4:1],6,5qq5[4:1],7,1qq1[4:1],3,
{16}4p8[16:2],,4,,6,,6,,5<8[16:2],,5,,3,,3,,
{16}8h[8:1]/2h[8:1],,,7h[8:1]/1h[8:1],,,68,,2,4,3,3,6,5,7,4,
8,8,71,,6<1[16:2],,2>5[16:2],,6q8[8:2],,2,,6,,,,
3,3,42,,1>4[16:2],,5<8[8:1],,1p8[16:4],,5,,1,,,,
5,5,46,,3,3,24,,1q5[8:1],,5q1[8:1],,1,,,,
6,6,75,,3-7[8:1],3,5-1[8:1],,3b>7[8:1],,5b,,3b,,,,
6-4[8:1],,7,,3v8[8:1],,2,,7<4[8:1],,6,,1h[8:2],,,,
5,5,2,,5p4[16:4],,3,,5/4>5[4:1],,,,,,
4,,3b,,1/2-4[16:2],,5,5,2,,6b,,8/7-5[8:1],,4,4,7,,1b,,46,,5b/7h[16:6],,1,1,,,
3h[8:2],,4,,4,,4/5b,,5h[16:2]/7,,6,5,47,,4b/5,,2/4h[16:2],,3,4,25,,8b/1bq3[4:1],,,,,,,,
7q1[8:2],,,4,,,4,,{12}3,3,3,26,26,26,{16}1q5[8:2]/5,,,,,,,,
7b,,6,5,6h[16:2],,3,4,3h[16:2],,6,5,7h[16:2],,3,4,2h[16:2],,
6,5,8h[16:2],,3,4,1h[16:2],,6,4,8h[16:2],,3,5,1h[16:2],,7,5,6h[16:2],,2,4,3h[16:2],,6,5,6h[16:2],,3,4,3h[16:12],,,,,,,,5-1[8:1],,,,,,,,
83,,6,5,6-1[16:1],,2,,36,,3,4,3-8[16:1],,7,,36,,6,5,6-2[16:1],,3,,36,,4,5,4-8[16:1],,6,,
4b/8b,,7,1,7-3[16:1],,2,,7b/3b,,1,5,1h[16:2],,7,,2h[16:6]/1b,,,7b,,,5b,,
{12}3-7[8:1]/4-8[8:1],34,34,{16}34,,,,
{4}1pp4[8:7]/5pp8[8:7],,,,,,,,,,,,,,
