&title=Sidekick
&artist=raku
&first=-0.365
&des=lemonix
&lv_5=14.6
&des_5=lemonix
&inote_5=
(110){4},{8}3,4,5,6,,5h[8:1],
4h[8:1],3h[8:1],{16}4,3,4,3,,,5,3,6,4,7,5,
,,{8}7,{16}7,5,7,5,,,7,5,6,4,5,3,
,,{8}3,{16}3,4,3,4,,,3,5,4,6,5,7,
{8}6,6,4,5h[4:1],4,4,,4,
2,8,{16}8,4,6,2,,,2,6,4,8,2,6,
,,{8}5,{16}5,1,7,3,,,5,1,7,3,5,1,
,,{8}4,{16}4,8,2,6,,,4,4,{8}4/5,4/5,
4/5,{32}4,5,4,5,{16}4/E6,,,C,,,{8}E2,,E3,
E4,E5,{16}E6,,,C,,,{8}E2,{16}E1,E8,{8}E7,
E5,E3,{16}E1,,,C,,,{8}E5,,E6/E4,
E7/E3,E8/E2,{16}E1,,,C,,,{8}E5,{16},E4,E3,E2,
{8}E1/E6,C,5x/E4,4,5/3x,5,4/6x,4,
5/3x,3,2/4x,4,5/3x,3,3/5x,4,
6/4x,5,3/5x,4,7/5x,6,4x/6,4,
4/2x,2,8x/2,8,6x/8,6,6x/4h[8:3],7,
8,1,{16}1-5[16:1],2,1,2,1x,3,2,1,{8}8/4v7[16:1],5/2<1<8-3<4[16:3],
4,2,6,{16}6,6,{8}6h[4:1],{16}2h,2h,{8}2>4[16:1],8/5<6<7[16:1],
2b/8,5,{16}8v3[16:1],7,8,7,8x,7,6,5,{8}1/4<5<6-8[8:1],2>3<4>3>2[16:3],
4b,2b,7<5[16:1],{16}1,8,{8}7/2>4[16:1],{16}8,1,{8}2/7<5[16:1],{16}1,8,
2/7<6-2[16:1]*<6-2[16:1],3,4,5,{4}6-8-3[4:1],3-1-6[4:1],6-8>1-3[4:1],
3,{8}6-4[16:1],4-6[16:1],2,8,2-6[16:1],6-2[16:1],
2/4,4,{16}4/3,4/3,4/3,4/3,E3,A1,A8,E7,5/6,5/6,6/5,6/5,
E7,A5,A4,E3,1/6b,,,5b/3,,,{8}7b/2,{16},5x/1x,,,7b/3,
3b/7,,,{8}2-4[16:1],{16}8,7,{8}2/6,{16}8,8<5[16:1],8,8>3[16:1],,8x-4[16:1],
,8x,,8x,{32},,8,1,2,3,{16}4,6,6,6,6/2,2,2,2,7,
6,5/4,3,2,1h/6h[16:3],,,4h[16:3],,,{8}2h[4:1],{16},,7,5,
6,4,5,3h[16:3],{8}C,{16}5,4,6,5,7,6,{48}8,1,2,3,,,{16}8,8,
{48}8,7,6,5,,,{16}1,1,{8}C,{16}3,4,{8}3,{16}8,8,6,5,{8}6,
{16},8h[16:1],7h[16:1],6h[16:1],5h[16:3],,,4h[16:3],,,{8}3h[16:3],{16},2,3,4,
5v2[16:1],6,{8}7,{4}5b/8b,{16}3/6,3/6,,2,,2,4,3,
5,4,6,5,6,8/6,7,7,3/1,2,2,2,2,5,6,7,
8,1,2,3/6,{8}3/6,{16}4,3,{8}4,{16}6/2,6/2-8[16:1],6/2,6/2-4[16:1],,6/2b,
,6/2b,,,2,2,{32}2,1,{16}5/8,5,5,{32}5,6,{16}7,7-5-1-7[16:3],{32}2x,3x,{16}4x,8x,
{4}7x/2>4-1<7-2[2:1],{8}2,5,6-3[4:1],5,{4}6,
{8}2,2,{16}4,2,4,3,5,3,6,4,6h[16:3],5,4,3h[16:3],
6,5,4,3,{8}3/6-2[8:1],{16}6,8,{4}6<2[16:3],{16}3x/6-2-8-6[4:1],4x,{8}5x,
{16},3,3,3,{8}3h[8:1],6,7/2,{32}1/8,7,6,5,4,3,2,1,8/2,7/3,6/4,5,
6,7,8,1,2/7,3/6,{16}5h[16:1]/4h[16:1],,,{8}5,{16}2,2,8-4[16:1],8,{8}1-5[16:1],8/2-4[16:1],
1,2,5,2,{16}6<8[16:1],{32}6,5,{16}2/4,2,6/2,4,1h[8:1],{32}6,5,
4,3,2,1,8,7,6,5,{4}7h[4:1]/4h[8:9],{8},,,5,
6,7,,8-4[8:5],,8,,7,
2z6[4:3],5,{4}2x,{8},8,,,4p3[4:3],
,,6,,,{4}7,
8q4[8:7],8x,{8},,,7,
7,7s3[2:1],,7,,1V75[8:3],,1,
3,2,{4}1h[8:3],{8},7h[8:3],,,5h[8:3],
,,3h[8:3],{32},,,,,,,,D7,A6,D6,A5,D5,A4,D4,A3,
D3/D7,A6,D6,A5,D5,A4,D4,A3,{8}6h/D3,6,7/5,6,4/2,3,
7/5,6,4/2,3,8/6,7,3/1,2,
8/6,7,3/1,2,6/3,5,6/3,4,
7/2,8,7/2,1,6/2,7,2/6,3,
6/2,7,2/6,2/7,8/1,8/1,1/3,3/1,
5/4,4/5,6/8,8/6,5/4,5/4,3/1,3/1,
8/1b,1/8b,{16}1,8,1,8,2,7,2,7,3,6,3,6,
4,5,4,5,{32}4,5,4,5,4,5,4,5,3,6,3,6,3,6,3,6,{4}3b,
{16},,,,6<7>8[16:1]/2v4[16:1],4,4,5/3,{4}2/6,{16}3/7v5[16:1],5,5q1[16:1],6/4,
{8}3x/A7,2x/A5,2-4[16:1],{16}2v7[16:1],1,{8}2,2xh,4h[8:1],2h[8:1],
{4}7h[8:1],{16}7v5[16:1]/3-1[16:1],5,5,4/6,{4}A7/A3,{16}6/2v4[16:1],4,4p8[16:1],3/5,
{8}6x/A2,7x/A4,7-5[16:1],{16}7,8,{8}7v2[16:1],{16}7,5,7,5h[16:1],3xh[16:1],4h[16:1],
2h[16:1],5h[16:1],3h[16:1],4h[16:1],{4}2<6[4:1],2/6-8-3[4:1],3-1-6[4:1],
6,{8}5p1[8:1],1p3[8:1],{4}3>5[4:1],{8}5-7-1-3[4:1],4h[16:1],
4h[16:1],4h[16:1],{16}4-8[16:1]*s8[16:1],2x,5,3,{4}4,{16}8-3[16:1],3-6[16:1],6-1[16:1],2,
{4}8,{16}4h[16:1],1xh[16:1],3h[16:1],8h[16:1],2h[16:1],7h[16:1],1h[16:1],6h[16:1],2h[16:1],7h[16:1],3h[16:1],8h[16:1],
2pp4pp6pp8pp2[4:3],1h[16:1],2h[16:1],1h[16:1],{4}2b,{32},,,,,,,,,,,,,,,,,,,Ch[32:1],
,,,,{8}1h[8:1],2h[8:1],3h[8:1],4h[8:1],5v2[16:1],6,
{16}5,,,2-5[16:1]/8-5[16:1],1,8/2,,2/8,,4,3,4,3,4,4,2,
2h[8:1]/6-4[16:1],7,8,7,{4}6/2-6-2[8:1],{16}2-7-1-7-2[16:3],5,,,2/5,5<6[16:1],5,5,
,5h,,,{8}3h[16:5],{16}7,7,,5,6,7,{32}8/1,2,3,4,1,2,3,4,
8,7,6,5,8,7,6,5,{4}1-5b[16:1],1>2>3-7[8:1],{16}1,5,,8bx/4h[8:3],
,,,,,1>3[16:1],5-7[16:1],1,,1,5,4,,5,6,7,
8-4[16:1],1,2,3,{4}4/8,{16}3,5,7,1,,6,8,7,
3,1,{8}2,{16}5,5,4,4b,3,3,2-4[16:1],2,1-5[16:1],1,{8}2b/8-6[16:1],
1b,8b,{4}4h[4:1],{16}6,5,,3,,2,3,4,
5,6,{8}7/2h[8:1],{32}6,5,4,3,2,1,8,7,6/2,3,4,5,6,7,8,1,2/6,5,4,3/1,2,3,4/7,6,
5,4/2,3,4,5/7,6,5,4,{4}3h[16:9],{16},,2>6[8:1],8,{32},,,,6/2,7,8,1,
{4}2bv5[16:1],{8}2,{16}7,7/4h[16:3],,,6,5,4,3,2-6[16:1],1,
{8}8-4[16:1],2,{4}8b,{16}6V82[8:1],4,4,4,{8}6,4,
{16}6-2-7-2-6[4:1],6,5,4,3,3,3,3,{32},,,4h[32:1],,,,2h[32:1],,,,,5/2,6,7,8,
1v4[8:1],2,3,4,5,6,7,8,{4}1,{16}1-5[8:1],2,3,4,1<8<7<6[8:1],4,3,2,
1,2,3,4,{32}5,4,3,2,5h,4h,3h,2h,5,6,7,8,5h,6h,7h,8h,5,4,3,2,1h,8h,7h,6h,
{8}5-2[16:1]*-8[16:1],4/6,{4}5b-1[16:1],5/2-6-2[8:1],{16}2-4[16:1]/5-8[16:1],5,,,{4}2bh/5bh,
{16}6/3>1[8:1],4,{8}4,{16}3/6<8[8:1],5,{8}5,6/3>1[8:1],4,
3/6-3[16:1],5,{4}6>4q8[4:1],6,{32}1,2,3,4,1,2,3,4,
1/5,2/6,3/7,4/8,5,6,7,8,1,2,3,4,5,6,7,8,5,6,7,8,5,6,7,8,1,2,3,4,5,6h[64:1],7h[64:1],8h[64:1],
1h[64:1],2h[64:1],3h[64:1],4h[64:1],5h[64:1],6h[64:1],7h[64:1],8h[64:1],{16}5/1h,3,5,4,6,4,3/7,3-6[32:1]/7-2[32:1],5,1,,7/3,
,8,4,6,3,5,3,5/3h[16:3],{32},,7,6,{16}5,3,6,7,6,7,
{24}6,7,6,{96}7,,,6,,,{32}7,6,{16}7,{32}4,3,{16}2,5,4-8[8:1],5,4,5,{32}4h[8:1],,,,,3,{16}2,
8,7,6,5h,{8}2/5h,3/7,{16}6h[16:3],5,4,3,,2,3,4,
5h[4:1],4,3,2,1,3h,5,1h,5,3h,5,8h,5,2h,5,3h,
5,2h,5/1h,5/1h,3b/7b,5b/1b,,,8b/4b,2b/6b,,,4,2,3,5,
7,6,{8}4h[8:1],{16},6,6,7,{8}8,{16}3,3,{32},,6,5,{16}6,7,
5,5,3,6,5,2,3h,{48}2-4-6z2b[16:9],3h,,{24}2h,3h,2h,3h,{48},{16}2,,,,,,,,,{8}6,
{16}6/3,5,4,3,,,7,7,8,8,
1,1,2,2h[16:1],{8}5,{16}2/5,3,5,6,,,4,4,7,6,
4,3,5,5,{8}3/6h[8:1],{16}3,4,5,6,,,2,2,1,1,
8,8,7,7h[16:1],{8}4h[8:1],{16}7,6,5,5,1,5,{8}3h[16:1],{16}7,3,
{8}5h[16:1],{16}1,5,{8}3h[4:1],{16}5,6,7,8h[8:1],3,4h[8:1],7,6h[8:1],3,2h[8:1],
7,8,3,4,{8}6h[4:1],{16}4,3,2,1h[8:1],6,5h[8:1],2,3h[8:1],6,7h[8:1],
2,1,6,5h[16:1],{8}4h[8:1],{16}8h[16:1],3h[16:1],1h[16:1],2h[16:1],6h[16:1],5h[16:1],8h[16:1],1h[16:1],5h[16:1],4h[16:1],
7h[16:1],8h[16:1],4h[16:1],3h[16:1],{8}5,8/6,7,3/1,2,4/8,
{4}6/Ch[4:1],{8}7h[8:1],{16}1,5,1,7h[16:3],,,3,5,1,7,
3/C,5,1,7,{8}3h[8:1]/C,{16}6,2,8,4h[16:3],,,,6,2,8,
4/C,6,2,8,4h[8:1]/C,,,6h[16:1],2h[16:1],8h[16:3],,,4h[16:1],6h[16:1],2h[16:1],8h[16:1],
4h[16:1],6h[16:1],2h[16:1],8h[16:1],{8}C,{16}5/6h[8:1],{32}1x,2x,{16}3x,6,4,7h[8:1],,5,6,4,
5,3,4,2,{8}4h[8:1],{16}3h[16:1],8h[16:1],2h[16:1],5h[16:3],,,4h[16:1],6h[16:1],3h[16:1],5h[16:1],
4h[16:1],6h[16:1],3h[16:1],5h[16:1],{8}4,{16}4,3,2,1,,,4h[16:1],1h[16:1],3h[16:1],2h[16:1],
4h[16:1],1h[16:1],3h[16:1],2h[16:1],{8}4h,{16}2,1,8,7,,,2h[16:1],7h[16:1],1h[16:1],8h[16:1],
2h[16:1],7h[16:1],1h[16:1],8h[16:1],{8}2h[8:1],{16}8,{32}7,6,{16}5,2,6,3,,7,2,1-4[0.5455##0.1364]/8-5[0.5455##0.1364],
{8}7/2,{16}8/1,1/8,{8}A5f/A4f,3/6h[8:1],{16}2,2,,,7/5,6,5,6/4,
5,4,5/3,4,{8}3-7-3[8:1],2,{16}5/3,5,,,5,4,5,3,
5,2,5,1,{8}5v2>3<4[8:1],2,{16}5/7,7,,,4,5,4,6,
4,7,4,8,{8}4h[16:7],6h,{16}6x,8x,7x,1x,,4,{32}2,4,2,4,
{24}2,5,2,5,{48},{16}2,{8}4,3,4/2,3,4/2,5,
3/6,4,6/3,6,7/5,6,7/5,6,
7/5,5/7,8/1,8/1,7/2,7/2,5/1,5/1,
3/6,3/6,{24}4,5,4,5,4,5,4,6,3,6,3,6,{32}3,7,2,7,2,7,2,7,
2,7,2,7,{48}1,8,1,8,1,8,{4}1h[8:5],{8},,,8s4-6v1<8<7<6>5>4[8:9],
2,8,,3,,3,,3,
2,1,{4}8h[8:9],{8},5,,,3,
,,4,,,{4}4/8,
2-6[8:7],2,{8},,,8q4[2:1],
8,8,,7,,5>4>3>2<1[8:3],,8/5,
7,6,{4}5h[2:3],{8},8,,,2,
,,4,{32},,,,,,,,D3,A3,D4,A4,D5,A5,D6,A6,
D7/D3,A3,D4,A4,D5,A5,D6,A6,{4}2bh[2:1]/D7,{8},4,{4}6,
2-4[16:1],{16}2,,,6h[16:3],,,{8}3,7-4[16:1],3,
7/B3,2,{4}6xh,{8},3,{4}7-5[16:1],
7,{16}3h/6h,,,4,,,{8}2-5[16:1],6x,2,
7v4[16:1],6/A3,7b,2,6/3,3,5/2,7,
4/6,3,2/5,6,7/4,6,8/4,3,
5/2,6/3,6/3,7/2,7/2,1/8,{16}1,8,2,7,
{32}3,4,5,6,7,8,1,2,{8}A3,A5,A7,A1,{16}3b,,,6h,
{8}2h,7h,{16}7/3-8[16:3],3/7,3/7,3/7,A7,B6,B4,A3,{8}3xh[8:3],1-6[16:1],
2-5[16:1],1,2,{16}2,2-8[16:1],,6,6,2h,{8}6-2[16:1],4-8[16:1],
6,4b,{16}5/1xV35[16:3],5/1x,5/1x,5/1x,D6,D7,D8,D1,{8}1xv6[16:1],3/8,
{4}1/3h[8:1],{32}3b,4,5,6,7,8,1,2,3/8b,7,6,5,4,3,2,1,4b/8,5,6,7,8,1,2,3,
4/7b,6,5,4,3,2,1,8,{4}7/3b<7[4:1],7>3[4:1],3V57[4:1],
7V13[4:1],{8}5v8[16:1],6xv3[16:1],5,6,6-4[16:1],7/2-8[16:1],
3/6b,2b,{16}4,5/2,3,5/2,A4,A5,A6,A7,4/8,2h/6h,8/4,6h/2h,
E3,E5,E7,E1,6,5,4,3h[4:1],,4-7[16:1],5,6,,4,3,2,
{32}1/6h[16:1],2,3,4,5,6,7,8,{16}1h[8:3],,,4h,,,{8}5h,2h[16:3],{16}6,6,
5/2,5/2,5/2,5/2,{8}3h[16:3],{16}5,5v2[16:1],,3h,7h,5h,,7h[16:1],4h[16:1],6h[16:1],
{8}5-1[16:1],{16}7,3h[16:7],5,,,7,,,{8}5-7[16:1],3,{16}5,2,
5/1,5/1,5/1,5/1,{48}1/5xh[24:1],2,{24}3,{48},,6/2xh[24:1],5,{12}4,{48}1/7xh[24:1],2,{24}3,{48},,7/2xh[24:1],6,{12}5,{48}3/7xh[24:1],4,{24}5,{48},,8/2xh[24:1],7,{12}6,
{48}3/7xh[24:1],4,{24}5,{48},,8b/2xh[8:1],7,{12}6,7h[16:3],{48},,,,,{16}3h[16:3],,,{8}6-8[16:1],2,{16}6,2,
1-5[64:3]/2-6[64:3],2/1,2/1,2/1,{8}2b/1b,{16}3/8,3/8-3[16:1],,1,5h[8:1],8,,6,2-4[16:1],4x,
6-8[16:1],1x,2,5x,6/2h[16:3],,,5h[16:3],,,{8}4-2[16:1],6,{16}4,7,
7/1,7/1,7/1,7/1,{8}1x/7v4[16:1],{48}1x,2x,{12}3x,{8}7x/3v8[16:1],{48}5x,6x,{12}7x,3x/7v4[16:1],{48},,1x,2x,{12}3x,
{8}7x/3v8[16:1],{48}5x,6x,{12}7x,3bx/7bx,{48},,,,,{16}6h[16:3],,,{8}2h[8:1],7h,{16}1/8,{32}8/1,7/2,
{16}3bx/6x,3b/6x,3b/6x,3b/6x,{32}3,4,5,6,7,8,1,2,7xh[64:1]/3h[32:5],6xh[64:1],5xh[64:1],6xh[64:1],7xh[64:1],6xh[64:1],{16}5xh,{32}3,2,1,8,7,6,5,4,
8/3h[64:1],7/2h[64:1],6/1h[64:1],5/8h[64:1],7h[64:1],6h[64:1],5h[64:1],4h[64:1],{16}3h[16:3],,,6h[16:3],,,{8}2-4[16:1],1/7,{16}2,{32}7,6,
{16}5/2b,2b/5,2b/5,2b/5,{48}2-6[16:1],3x,{24}4x,{48},,1-5[16:1],8x,{12}7x,{8}2x,1x,{48}2-6[16:1],3,{24}4,{48},,1-5[16:1],8,{12}7,
{8}2x,1x,{16}2h[16:3],,,6h[16:3],,,{8}3-7[16:1],2,3/5,
{16}1/5b,1/5b,1/5b,1/5b,{32}1,2,3,4,5h[64:1],6h[64:1],7h[64:1],8h[64:1],1/6,5,4,3,2,1,8/3h[64:1],4h[64:1],5h[64:1],6h[64:1],7,8,1/4,5,6,7,
8/2h[64:1],3h[64:1],4h[64:1],5h[64:1],6h[64:1],7h[64:1],8h[64:1],1h[64:1],{16}2/6h[16:3],,,1h[16:3],,,{8}7<5[16:1],8/3,{16}7,2,
{64}2b,3h[64:1],,,6b,5h[64:1],,,1b,2h[64:1],,,7b,6h[64:1],,,{8}3,5/1-3[16:1],8,1x/6,7-3[16:1],3/5-1[16:1],
7/4,5b,{16}6,4,5,3,,2,4,3,5,4,6,5,
,6,2,6,
E
