&title=威風堂々
&artist=梅とら
&first=0.05
&des=GlzKQd12PYKIYpf2d7GH0D0oRleKTuAwQ3lH2EuK/Z6m4fjAsIURWw+D8zWQhqHgBovMwoWcJkQ=
&lv_5=13
&inote_5=(130)
{1},,
{16},,,,,,,,,,,,,,,,
{16},,4h[16:1],,,,3h[16:1],,,,4h[16:1],,,,5h[16:1],,
{16},,5h[16:1],,,,6h[16:1],,,,5h[16:1],,,,4h[16:1],,
{16},,3h[16:1],,,,2h[16:1],,,,3h[16:1],,,,4h[16:1],,
{16},,5V73[8:3],,,,,,,,,,,,,,
{16}3b<5[8:1]/4h[4:1],,,,,,,,2>5[8:1]/5h[4:1],,,,,,,,
{16}1>5[8:1]/6h[4:1],,,,,,,,8>5[8:1]/7h[4:1],,,,,,,,
{16}6b>4[8:1]/5h[4:1],,,,,,,,7<4[8:1]/4h[4:1],,,,,,,,
{16}8<4[8:1]/3h[4:1],,,,,,,,1<4[8:1]/2h[4:1],,,,,,,,
{16}3b,,3-6[8:1],,,,7-4[8:1],,,,3v6[8:1],,,,7v4[8:1],,
{16},,3p6[8:1],,,,7q4[8:1],,,,2h[4:1],,,,4,,
{16}5,,6-3[8:1],,,,2-5[8:1],,,,6v3[8:1],,,,2v5[8:1],,
{16},,6q3[8:1],,,,2p5[8:1],,,,8,,,,7,,
{16}3,,3,5,3,5,3,,3/6,,3,,3/7,,3h[8:1],,
{16}6,,6,4,6,4,6,,6/3,,6,,6/2,,6h[8:1],,
{16}2,,2,8,2,8,2,,2/7,,2,,2/6,,2h[8:1],,
{16}7-4[8:1],,,,2-5[8:1],,,,6-3[8:1],,,,4,,,,
{16}2,,2,4,2,5,2,,2/6,,2,,2/7,,2h[8:1],,
{16}7,,7,5,7,4,7,,7/3,,7,,7/2,,7h[8:1],,
{16}3,,3,5,3,6,3,,3/7,,3,,3/8,,3h[8:1],,
{16}1-5[8:1],,,,4-8[8:1],,,,6-2[8:1],,,,3qq5[4:2],,,,
{16}5h[4:1],,,,,,,,,,6,,7,,8,,
{16}7-4[8:1],,,,1-4[8:1],,,,8qq4[2:1],,,,8,,,,
{16}3h[4:2],,,,,,,,,,5,,5qq4[8:3]*pp6[8:3],,,,
{16}5,,,,,,,,,,1,7,1-6[8:1],,1,,
{16}2b-5[8:1],,2,,3,,3,,4/6,,7,5,8-3[8:1],5,8,,
{16}7-4[8:1],,7,,6,,6,,3/5,,2,,2-7[8:1],1,2,,
{16}3-6[8:1],,3,,4,,4,,5/7,,8,1,7-2[8:1],1,7,,
{16}6-3[8:1],,6,,5,,5,,2/4,,1,,5/7,,8,,
{16}2-5[8:1]/6,,,,2-7[8:1]/7-4[8:1],,,,7-2[8:1]/2,,,,6/7,,,,
{16}8-4[8:1]/4,,,,8-3[8:1]/4-7[8:1],,,,4-8[8:1]/8,,,,4/5,,,,
{16}1-6[8:1]/7,,,,8-3[8:1]/1-4[8:1],,,,1/8-5[8:1],,,,4/8,,,,
{16}2-7[8:1]/6,,,,2-6[8:1]/4-8[8:1],,,,4-1[8:1]/2,,,,4/8,,,,
{16}2b/7b,,,,3/4,,3,,4/6v3[8:1],,7,,3<6[8:1]/6,,2,,
{16}3/6,,7,,8<3[4:1],,8h[8:3],,,,,,,,2,,
{16}1-4[8:1],,2,,7-4[8:1],,6,,2p6[8:1],,3,,8-4[8:1],,,,
{16}4v1[8:1]*v7[8:1]/8,,,,4,,,,8-3[8:1]*-5[8:1],,,,8,,,,
{16}4h[4:1],,,,,,,,{32}1,2,3,4,5,6,7,8,{16}1b,,,,
{16}3<8[4:3],,,,,,,,,,,,,,,,
{16}3q8[4:3],,,,,,,,,,,,,,,,
{16}3v8[4:3],,,,,,,,,,,,,,,,
{16}3-8[4:3],,,,,,,,,,,,3,,,,
{16}3-6[4:3],,,,3,,,,3,,,,3,,,,
{16}3v6[4:3],,,,3,,,,3,,,,3,,,,
{16}3p6[4:3],,,,3,,,,3,,,,3,,,,
{16}3>6[4:3],,,,3,,,,3,,,,2,,,,
{16}1-6[8:1],,,7,1,,8-3[8:1],,,2,8,,2,,3,,
{16}4-1[8:1],,,6,4,,5-8[8:1],,,3,5,,2,,1,,
{16}8-3[8:1],,,7,8,,6-1[8:1],,,5,6,,4,,3,,
{16}2-7[8:1],,,1,2,,6-3[8:1],,,5,6,,2,,1,,
{16}2b/8b,,3,,1/7,,6-4[8:1],,,,4,,3,,2,,
{16}1/5,,6,,3/7,,2-4[8:1],,,,6,,7,,8,,
{16}2-5[8:1]/1,,,1,2,,7-4[8:1],,,8,7,,1,,2h[8:1],,
{16}4h[4:1],,3,,1h[8:1],,7,,{12}4b/6b,,2b/5b,,3b/8b,,
{16}2>5[8:1],,5p1[8:1],,6,,7p3[8:1],,8,,7,,2,,1,,
{16}8/2-7[8:1],,3h[8:1],,,,4-7[8:1],,3h[8:1],,,,1,,1,,
{16}2/8,,7/3<6[8:1],,,,7v2[8:1],,,,4v1[8:1],,,,8p4[8:1],,
{16},,2z6[8:1],,,,7,,,,8,1,8-5[8:1],,8,,
{16}8b-3[8:1],,8,,8,,4,,4,,2,5,1q5[8:1],5,1,,
{16}1p5[8:1],,1,,1,,4,,4,,6,4,7<4[8:1],4,7,4,
{16}7>2[8:1],,7,,7,,4,,4,,3,4,2v5[8:1],4,2,,
{16}2v7[8:1],,2,,2,,4,,4,,3,,2/8,,6,,
{16}1b>4[8:1]/5b,,,,1v6[8:1]/5v2[8:1],,,,5<8[8:1]/1,,,,1/5,,,,
{16}4b/6bv3[8:1],,,,4>1[8:1]/6<1[8:1],,,,4v7[8:1]/6,,,,4/6,,,,
{16}2b/7b>2[8:1],,,,2q6[8:1]/7p3[8:1],,,,2<7[8:1]/7,,,,2/7,,,,
{16}5bs1[8:1]/4b,,,,4>1[8:1]/5<8[8:1],,,,4z8[8:1]/5,,,,4/5,,,,
{16}1b/8b,,,,2>5[8:1],,2,,2/7p3[8:1],,8,,1q5[8:1]/7,,2,,
{16}6/1,,7,,8,,8h[4:2]/2,,3,,4,,3,,2,,
{16}1h[4:1],,5,,6,,7,,7<4[8:1],,8,,1>4[8:1],,8,,
{16}1/6<1[8:1],,,,3<6[8:1]/6,,,,2/3,,,,1w5[8:1],,,,
{16}1b,,,,3h[4:1],,4,,5h[4:1],,4,,3,,2,,
{16}1h[8:1]/8h[8:1],,,,3h[8:1]/2h[8:1],,,,5h[8:1]/4h[8:1],,,,7h[8:1]/6h[8:1],,,,
{16}1h[8:1]/8b<6[8:1],,,,5h[8:1]/8,,,,1h[8:1]/8<5[8:1],,,,4h[8:1]/8,,,,
{16}1h[8:1]/8<4[8:1],,,,3h[8:1]/8,,,,1h[8:1]/8<3[8:1],,,,2h[8:1]/8,,,,
{16}8h[8:1]/1b>3[8:1],,,,4h[8:1]/1,,,,8h[8:1]/1>4[8:1],,,,5h[8:1]/1,,,,
{16}8h[8:1]/1>5[8:1],,,,6h[8:1]/1,,,,8h[8:1]/1>6[8:1],,,,7h[8:1]/1,,,,
{16}7b,,7-2[8:1],,,,3-8[8:1],,,,7v2[8:1],,,,3v8[8:1],,
{16},,7p2[8:1],,,,3q8[8:1],,,,6h[4:1],,,,8,,
{16}1,,2-7[8:1],,,,6-1[8:1],,,,2v7[8:1],,,,6v1[8:1],,
{16},,2q7[8:1],,,,6p1[8:1],,,,4,,,,3h[16:17],,
{16},,4h[16:1],,,,7h[16:1],,,,6h[16:1],,,,5h[16:1],,
{16},,,,,,,,,,,,,,,,
E
