&title=Starlight Traveler
&artist=打打だいず_ああああ
&first=0
&des=请设置做谱入
&des_5=请设置做谱入
&lv_5=14
&inote_5=(214){4},,,,3h[1:1],
4,4,4,
5h[4:3],4,4,{8}4,6,
{4}3h[4:3],5,6,7,
8h[4:3],1,2,{8}3,3>1[8:1],
{16},,,,,,7,6,{8}5,3,4,2-5[8:1],
,1-6[8:1],,3>6[8:3],,5,4,4h[8:3],
,,{4}8,1,2,
{8}2/6,7/3,4/8,1-6[8:1]/5-2[8:1],,A1f/B1/B5/C/A5f,,,{4}1>4[4:1],
4<7[4:1],7,B2/E2/B1,
8<5[4:1],5>2[4:1],2,E1/B8/E8,
6/2-4[8:1],8-6[8:1],1-5[8:1],8,
{8}4/7,4/7-5[8:1],,3,2,{16}2,4,3,5,{8}4,
{4}5bx/6x,6x/4bx,7x/3bx,7x/1bx,
{8}2,2,8,8,{16}1,7,1,7,{12}2h,6h,4h,
{4}8h,{12}8,4,6,{4}2,{12}2h,8h,2h,
7,3,5,2h,6h,4h,7,5,1,3h,7h,1h,
{1}5bq1q7v6[8:11]*p1p3v4[8:11],
{8},,,,,,,3x/7x,
{1}7x/3x>4[1:1]*<2[1:1],
{8},,,,,7<6-3-6[2:3],,,{1}2b-7-2b[8:9],
{8},,,,,,,4p2[1:1],
{1}8bp6b[8:7],
{16},,,,,,,,A1,A5,A2,A6,A3,A7,{8}A4,
8x,8x,8x,{16}8,1,{8}7,7,7,7h[4:1],
,3,3,{16}3,4,{8}2,2,2,2,
1,1,1,{16}2,4,{8}3,3,3,3,
{16},,6,5,7,4,7,3,{8}6xh,2xh,5xh,1xh,
{4}4-6[8:1],{16}4/2,,,3,{8}8-6[8:1],5,8,2-4[8:1],
5,2,7,5,6,{16}6,5,{4}7/4>6[8:3],
4/6,{8}4,4,{16},,6,7,8,1,2,3,
{4}4-1[8:1],{8}4/8v3[8:1],7,{16},,5,6,{8}7,1bxqq4[16:17],
,,,,,,,,{1}3<1[4:3],
{4}2,{8}3,3,,,5,4,
{16},,,,,,6,5,{2}6h[2:1],
{1}7q5[16:15],
6>8[4:3],
{4}7,{8}7,1,,,2/1,3<6[4:1],
,,,8b>3b[4:1],,,,,{4}C,
{8}A8,B3/B4,,,A1,A3/A4/E4,
,A7,B6,D5,D2,B1,B7,D7,
{4}C,{8}A1,B6/B5,,,A8,A6/A5/E6,
,A7,B6,D5,D2,B1,B7,D7,
{4}C,{8}A7,B2/B3,,,A8,A2/A3/E3,
,1b,1b,1b,{16}1bx/8x,,,5/7,,,{8}3/5,
2,{16}2,4,{8}3,{16}6,5,{8}7,{16}2,1,{8}3,{16}7,8,
{8}7,6/1,2,3/8,7,6/4,2,7,
{16}1,8,1,8,1,8,1,8,{24}1,2,3,4,5,6,7,8,1,2,3,4,
{16}8x,,,8x,,,{8}8x,{16}7/1-5[8:1],2/6,{8}3/5,{4}1/8-4[8:1],
A8f/D1/2-6[8:1],A2/7-1[8:1],4/A7,{8}3/4,2/5,
{4}6/1-5[8:1],{8}8,7-4[8:1],,4,{4}3-1[8:1],
6-8[8:1]/3-5[8:1],3/6V42[16:3],1,7,
8-4[8:1],{8}1,2-5[8:1],,5,{4}6-8[8:1],
6-4[8:1]/3-1[8:1],6/3V57[16:3],8,2,
{24}8,7,6,5h[4:1],,,,,,7,6,5,{4}4h[4:1],1,
2V48[8:1],{8}6,7V51[8:1],,4,3,2,
{24}2/8,3,4,5p1[8:1],,,,,,,,,8,7,6,5q1[8:1],{48},,,,,,,,,,,,,,,,{16}2,
3,4,5,6-3[8:1],7,8,1,{4}6b/2x,{24}1,8,7,6,5,4,
{4}7bx/3x,{24}4,5,6,7,8,1,{4}2x/6bx,{8}4,4,
{4}1/7,{8}5/3,3/5h[4:1],,3,8,1,
{4}7/2-5[8:1],{8}6,6-3[8:1],{16},,8,1,{4}2-5[8:1],
2/6<4[2:1],{8},,,,7,8,
{4}1>7[2:1],{8},,,,1,2,
{4}3>6b[8:3],{8},,,,3,4,
{16}2,5,2,5,1,6,1,6,{24}8x,7x,8x,7x,8x,7x,{4}8x,
{8}1,1,7,2-5[8:1],,6-1[8:1],,4-8[8:1],
,7,6,5-1[8:1],,5,2>5[8:1],8,
2,7v4[8:1],8,7,,1/5,2/6,7/3h[4:1],
{16},,6x,4x,7x,3x,8x,2x,7x,1x,6x,2x,5x,3x,6x,4x,
{8}7,7,2,8-4[8:1],,3-8[8:1],,5-1[8:1],
,2,3,4-8[8:1],,4,7<4[8:1],1,
7,2v5[8:1],1,2,,8/4,7/3,2/6h[4:1],
{16},,3x,5x,2x,6x,1x,7x,2x,8x,3x,7x,4x,6x,3x,5x,
{1}2bh[2:7],
,7h[1:2],
{4},,,,C,
{8}A3,B6/B7,,,A4,A6/A7/E7,
,A3,B4,D6,D1,B1,B3,D4,
{4}C,{8}A6,B1/B2,,,A7,A1/A2/E2,
,5,2,6,1b-3<4b[8:1]*>2-4[8:1],7b-5>4[8:1]*<6-4b[8:1],1b,7b,
B1f/E2/E1,,,E7/B6/A6f,,,,B3/B4/E4,
,7-5[8:1],8,7,1-3[8:1],4-8b[8:1],1,4,
B6f/E6/E7,,,E1/B1/A1f,,,,B4/B3/E4,
,6-8[8:1],5,6,4-2[8:1],1-5b[8:1],4,1,
B8f/E8/E1,,,E3/B3/A3f,,,,B6/B5/E6,
,1b,1b,1b,{16}1bx/8x,,,5/7,,,{8}3/4,
2,{16}6,5,{8}6,{16}3,4,{8}2,{16}7,8,{8}6,{16}2,8,
{8}4,6/1,2,3/8,7,6/4,2,7,
{16}1,8,1,8,1,8,1,8,{24}1,2,3,4,5,6,7,8,1,2,3,4,
{4}5s1[4:3],,,1?z5b[16:15],
,,,,,,,,{2}1/6h[2:1],
{24}E4,E5,,,,,,,,,,,{2}6/2h[2:1],
{24}E8,E1,,,,,,,,,,,{2}2/7h[2:1],
{24}E5,E6,,,,,,,,,,,{2}6/2h[2:1],
{24}E8,E1,,,,,,,,,,,{2}4/7-4[4:1],
8x,
5/2-5[4:1],1x,
7/8-5[4:1],4x,
{4}7/5,{8}1,1,5,2,7,4,
{4}5b-1[8:5],5x,5x,5x,
4b-8[8:5],4x,4x,4x,
2,{8}6/5,5h[4:1]/6h[4:1],,,7-4[8:1],4-2[8:1],
{4}7,{8}1,8v3[8:1],,,{4}7b,
{8}6-4[8:1],2-5[8:1],6,2,,6,3>6[4:1],7,
{2}3/7h[4:1],{8}3h[8:1],{16}6,2h[8:1],,7,{8}1h[8:1],
{24}8,7/2,6/3,5/4,,,,,,{8}6,3-1[8:1],7-5[8:1],3,7,
{16}2,3,4,5,6,7,8,1,{2}2-4b[8:1]/6-4b[8:1],
{8}7-4[8:1],4-8[8:1],7,3,2-5[8:1],1-6[8:1],2,1,
{16}4,3,2,1,8,7,6,5,4h[4:1],D8,D1,D2,D3,D4,D5,D6,
{4}D7f/2-6[8:1],A2/7-1[8:1],4/A7,{8}3/4,2/5,
{4}6/1-5[8:1],{8}8/1,7-4[8:1],,4/7,{4}3-1[8:1],
6-1[8:1]/3-5[8:1],3/6V42[16:3],8,6,
8-4[8:1],{8}1/8,2-5[8:1],{16},,5,6,{8}7b-3[8:1],{16}4,3,
{4}2b-8[8:1],2-5[8:1]/5-7[8:1],2/5,1,
{24}1b/2b,8/3,4/7,5/6-3[8:1],,,{8}2,6/1b-5[8:1],,8,{4}7b,
6/2V48[8:1],{8}7,7-5[8:1],,2,1>4[16:3],8,
{16}5,6,7,8,1-5b[8:1],2,3,4,{4}5/1b,8,
{16}2/7,3,4,5,6-3b[8:1],7,8,1,{4}6b/2x,{24}8xqq6b[8:1],7,6,5,4,3,
{4}8bx/2x,{24}4x,5,6,7,8,1,{4}2x/4bx-8[8:1],{8}2,2,
{4}1/7,{8}5/3,3/5h[4:1],,3,8,2,
{4}1/7-4[8:1],{8}7/1-5[8:1],2,{16},,8,7,{4}6,
{8}3/6,5,4/1,2,3/8,7,6/2,3,
4/7,6,5/2,3,4/6,7,8/1-5[8:1],2,
6-3[8:1],7,2-8[8:1],1,5-7[8:1],6,4,3,
{16}2,8,2,8,3,7,3,7,{32}3,4,5,6,7,8,1,2,3,4,5,6,7,8,1,2,
{4}3/7,{8}6,2-5[8:1],,6-1[8:1],,4-8[8:1],
,7,6,5,,5,5-7[8:1],8,
1-6[8:1],2-5[8:1],1,2,,4/7,3/8,1/2h[4:1],
{16},,6,4,7,3,8,2,7,1,6,2,5,3,6,4,
{8}7,7,1,8-4[8:1],,3-8[8:1],,5-1[8:1],
,2,3,4,,4,4-2[8:1],1,
8-3[8:1],7-4[8:1],8,7,,5/2,6/1,8/7h[8:1],
{16},,3,5,2,6,1,7,2,8,3,7,4,6,3,5,
{4}2b,{8}8/1,7/2,,2-5[8:1],5-3[16:1],2,
,6,7-4[8:1],8,7/1-5[8:1],2,{4}1,
{8}7,{16}3,4,{8}3,2/5,,1/2,3/8,4/7,
{16},,8,1,{8}8,{16}3,4,{8}3,{16}6,5,{8}7,{16}2,1,
{4}3b,{8}1/8,2/7,,7-3[8:1],3-8[8:1],7,
,5,4-7[8:1],3,4/2-5[8:1],1,{4}2,
{8}2,{16}6,5,{8}6,7/4,,8/7,6/1,5/2,
,1/8b,8b/2,3/8b,4b/8b,7/4b,4b/6,4b/5,
{4}4b/5,{12}2b,6b,4b>8b[12:1],{2}8b<4[12:1],
E
