&title=Pure Ruby
&artist=Shiki
&first=0
&des=Dororo
&lv_5=14
&inote_5=(178)
{16}
,,,,,,,,,,,,,,,,
3h[256:1],,7h[256:1],,4h[256:1],,6h[256:1],5h[256:1],6h[256:1],5h[256:1],6h[256:1],,1h[256:1],,8h[256:1],,
2h[256:1],,6h[256:1],,3h[256:1],,5h[256:1],4h[256:1],5h[256:1],4h[256:1],5h[256:1],,1b,,,,
6h[256:1],,2h[256:1],,5h[256:1],,3h[256:1],4h[256:1],3h[256:1],4h[256:1],3h[256:1],,8h[256:1],,1h[256:1],,
2h[16:1]/7h[16:1],,,,3h[16:1]/6h[16:1],,,,4h[16:1]/5h[16:1],,,,7,8,1,2,
3-7[8:1]/6-4[8:1],,,,,,,,2,3,4,5,8,7,6,5,
3V17[6:1]/4,,,,3,,6v4[8:1],,,,6,,2,,1,,
3-7[8:1]/8-2[8:1],,,,,,,,3,4,5,6,1,8,7,6,
4^1[8:1]/5,,,,4,,8q5[6:1],,,,8,,1,,2,,
6-2[8:1]/3-5[8:1],,,,,,,,7,6,5,4,1,2,3,4,
6V82[6:1]/5,,,,6,,3v5[8:1],,,,3,,1,,,,
7,6,5,4,8,1,2,3,6,4,6,4,5,3,5,3,
1,8,7,6,2,3,4,5,8,1,7,2,8,1,7,2,
1-4[1:1]/8-5[1:1],,,,,,,,,,,,,,,,
,,,,,,,,,,,,,,,,
2-4[8:1],,1,,2,,8,,2-5[8:1],,1,,2,,8,,
2-6[8:1],,1,,2,,8,,
{12}
7h[12:1],5h[12:1],6h[12:1],2h[12:1],4h[12:1],3h[12:1],
{16}
8-4[8:1],,1,,8,,1,,4-7[8:1],,3,,4,,3,,
7-5[8:1],,8,,7,,8,,3-1[8:1]/4-1[8:1],,,,34,,,,
8-6[8:1],,,,8,,2-4[8:1],,,,2,,1-5[8:1],,,,
4-8[8:1],,,,4,,5-7[8:1],,,,5,,3-1[8:1],,,,
7qq4[8:3],,,,7,,2,,,,1,,1<3[4:1],,5,,
1,,,,,,,,1w5[8:1],,,,1,,,,
7-5[8:1],,8,,7,,1,,7-4[8:1],,8,,7,,1,,
7-3[8:1],,8,,7,,1,,
{12}
2h[12:1],4h[12:1],3h[12:1],7h[12:1],5h[12:1],6h[12:1],
{16}
1-5[8:1],,8,,1,,8,,5-2[8:1],,6,,5,,6,,
2-4[8:1],,1,,2,,1,,6-8[8:1]/5-8[8:1],,,,56,,,,
1-3[8:1],,,,1,,7-5[8:1],,,,7,,8-4[8:1],,,,
5-1[8:1],,,,5,,4-2[8:1],,,,4,,6-8[8:1],,,,
2pp5[8:3],,,,2,,7,,,,8,,8>6[4:1],,4,,
8,,,,,,,,8>4[8:1]*<4[8:1],,,,8b,,,,
2-5[8:1],,,,12,,8-4[8:1],,,,4,,3,,2,,
1-4[8:1],,,,18,,7-3[8:1],,,,3,,4,,5,,
6-3[8:1]/7-2[8:1],,,,67,,,,1,,1^6[8:1],,,,1^4[8:1],,
,,1-6[8:1],,,,1,,,,2b/5b,,6,1,7,8,
7<1[4:1],,,,4h[4:1],,,,,,2-4[8:1]/8,,,,2-5[8:1],,
,,2-6[8:1],,,,2-7[8:1],,,,2,,4,,6,,
1pp5[1:1]*qq5[1:1],,,,,,,,,,,,,,,,
,,,,,,,,7-4[8:1]/3-8[8:1],,,,3b/7b,,,,
8,1,2,8,7,6,8,1,2,8,7,6,3,5,4,6,
2,3,4,1,8,7,2,3,4h[8:1],,6h[8:1],,8h[8:1],,2h[8:1],,
3,4,5,7,6,5,3,4,5,7,6,5,1,7,8,6,
1,2,3,1,8,7,1,2,35,6,7,5,4,3,5,6,
7h[4:1],,,,1,2,3,4,
{24}
8,7,6,5,4,3,7,6,5,4,3,2,
{16}
1h[4:1],,,,7,6,5,4,1,3,1,4,1,5,1,6,
1b,,7,5,6,4,5,3,1b,,3,5,4,6,5,7,
1b,,,,
{32}
2,3,4,5,6,7,8,1,2-5[8:1]/6-1[8:1],,,,,,,,2b/6b,,,,,,,,
{16}
1,8,7,1,2,3,1,8,7,1,2,3,6,4,5,3,
7,6,5,8,1,2,7,6,5h[8:1],,3h[8:1],,1h[8:1],,7h[8:1],,
6,5,4,2,3,4,6,5,4,2,3,4,8,2,1,3,
8,7,6,8,1,2,8,7,64,3,2,4,5,6,4,3,
2h[4:1],,,,8,7,6,5,
{24}
1,2,3,4,5,6,2,3,4,5,6,7,
{16}
8h[4:1],,,,2,3,4,5,8,6,8,5,8,4,8,3,
8b,,2,4,3,5,4,6,8b,,6,4,5,3,4,2,
8b,,4,5,4,3,2,1,5,6,7,8,
{32}
2,3,4,5,6,7,8,1,
{16}
2pp3[2:1],,,,,,7h[8:7],,,,,,,,,,
,,,,,,,,
{6}
56,45,34,
{16}
1>6[1:1],,,,,,,,,,,,,,,,
7h[4:1],,,,,,8h[4:1],,,,,,1,,,,
2<4[1:1],,,,,,,,,,,,,,,,
3h[4:1],,,,,,2h[4:1],,,,,,1,,,,
7p2[2:1],,,,,,5h[8:5],,,,,,,,,,
,,34,,,,56,,8-4[8:1],,1,,8,,,,
{16}
7qq6[2:1],,,,2,,1,,2,,,,2,,,,
2,,,,2,,,,
{6}
34,45,56,
{16}
8<3[1:1],,,,3,,,,3,,,,3,,,,
2h[4:1],,,,,,1-5[8:1],,8,,1,,8,,,,
7>5[1:1],,,,5,,,,5,,,,5,,,,
6h[4:1],,,,,,7-3[8:1],,8,,7,,8,,,,
2q7[2:1],,,,3,,4,,3,,,,3,,,,
5s1[4:1],,,,,,,,,,,,3b/7b,,,,
2,1,2,1,2,,6,5,6,7,6,,3,4,3,,
7,6,7,6,7,,1,8,1,2,1,,5,4,5,,
7,8,7,8,7,,3,4,3,2,3,,6,5,6,,
2,3,2,3,2,,8,1,8,7,8,,4,5,4,,
2,3,2,4,2,,6,5,7,5,6,,4,3,2,1,
8,7,8,6,8,,4,3,5,3,4,,8,1,8,1,
7,6,7,5,7,,3,4,2,4,3,,5,6,7,8,
1,2,1,3,1,,5,6,4,6,5,,7,8,1,2,
3,4,3,6,5,6,3,4,3,6,5,6,1,2,3,4,
7,6,7,5,6,5,7,6,7-3[8:1],,1-5[8:1],,7,,1,,
7,8,7,2,1,2,7,8,7,2,1,2,7,6,5,4,
3/8b,1,2,3/8b,7,6,5/2b,3,4/1b,8,7,6/1b,2,3,4/7b,6,
5h[4:1],,,,1,8,1,8,
{24}
2,3,4,8,7,6,1,2,3,7,6,5,
{16}
4h[4:1],,,,2,3,4,5,7,8,7,1,7,2,7,3,
{24}
7b,6,5,
{16}
1,8,2,7,1,8,
{24}
2b,3,4,
{16}
8,1,6,3,8,1,
{24}
6b,5,4,
{16}
2,7,4,5,2,7,
{32}
1,2,3,4,5,6,7,8,1,2,3,4,5,6,7,8,
1bq3[1:2]/5bq7[1:2],,,,,,,,,,,,,,,,
,,,,,,,,,,,,,,,,
,,,,,,,,,,,,,,,,
,,,,,,,,,,,,,,,,
,,,,,,,,,,,,,,,,
,,,,,,,,,,,,,,,,
,,,,,,,,,,,,,,,,
,,,,,,,,,,,,,,,,
,,,,,,,,,,,,,,,,
,,,,,,,,,,,,,,,,
,,,,,,,,,,,,,,,,
,,,,,,,,,,,,,,,,
,,,,,,,,,,,,,,,,
,,,,,,,,,,,,,,,,
,,,,,,,,,,,,,,,,
E
