&title=Lucky star a?
&artist=USAO
&first=0
&des=moying
&clock_count=4
&lv_5=14+
&inote_5=(175){1},,
{1}3bh[8:15]/8bh[4:6],{4},,,
{8},7b,{1}6bh[4:6]/4bh[4:6],{4},,,
{8},{32}8bx,7bx/1bx,6bx/2bx,5bx/3bx,{1}4bxh[8:15],{4},,,
{8},8b,{1}1bh[4:6]/5bh[4:6],{4},,,
{8},5b/6b,{4}4b/7bh[1:2],B5,B6,B7,B8,B1,B2,{8}B3,
3bx,{4}2bxh[1:2],E5,E4,E3,E2,E1,E8,{8}E7,
5bx,{4}6bxh[1:1],D6,D7,D8,D1/B6`Cf,D2,D3,D4,
{4}4b/8b,57,1b/5b,24,3x/7x,{8},3x/5x,2x-5[8:1]/4x-8[8:1],,2x/4x,,
{16}6x/1x-7[8:1],,2,,3/1x-3[8:1],3x,,5x,6x/1x-7[8:1],,8,,4/1x-3[8:1],4x,,,
{16}1x-7[8:1]/7x,,8,,4/1x-3[8:1],4x,,6,6x/1x-5[8:1],,7x,8x,1x,2x,3x,,
{16}3x/8x-2[8:1],,7,,6/8x-6[8:1],6x,,6,3x/8x-2[8:1],,1,,5/8x-6[8:1],5x,,,
{16}8x-2[8:1]/2x,,1,,5/8x-6[8:1],6x,,2,2x/8xw4b[8:1],,{32}4x,3x,2x,1x,{16}8bx,,,,
{16}6x/1x-7[8:1],,2,,3/1x-3[8:1],3x,,5x,6x/1x-7[8:1],,8,,4/1x-3[8:1],4x,,,
{16}1x-7[8:1]/7x,,8,,4/1x-3[8:1],4x,,6,6x/1x-5[8:1],,7x,8x,1x,2x,3x,,
{16}2x,5,3,4,4x,,7x,4,6,5,5x,,3x,4,,7,
6x/8x,,24,,57,,13,,26,,{24}3,4,3,{16}5b,,,,
{16}2x/8x-3[8:1],,7,,6/8x-5[8:1],6x,,4x,3x/8x-3[8:1],,1,,6/8x-5[8:1],6x,,,
{16}8x-3[8:1]/2x,,1,,6/8x-5[8:1],6x,,4,4x/8x-4[8:1],,2x,1x,8x,7x,6x,,
{16}7x/1x-6[8:1],,2,,3/1x-4[8:1],3x,,5,6x/1x-6[8:1],,8,,3/1x-4[8:1],3x,,,
{16}1x-6[8:1]/7x,,8,,3/1x-4[8:1],2x,,7,7x/1xw5b[8:1],,{32}5x,6x,7x,8x,{16}1bx,,,,
{16}2x/8x-3[8:1],,7,,6/8x-5[8:1],6x,,4x,3x/8x-3[8:1],,1,,6/8x-5[8:1],6x,,,
{16}8x-3[8:1]/2x,,1,,6/8x-5[8:1],6x,,4,4x/8x-4[8:1],,2x,1x,8x,7x,6x,,
{16}2x,5,3,4,4x,,7x,4,6,5,5x,,3x,4,,7,
{8}8x,,,1x/5x,3x-8[8:1]/7x-4[8:1],,37,,
{1}1bw5b[10.9375#128:1]/Cf,,,,
||
そりゃぷにってコトかい?
{8}1b,,37,,35,26,,{16}3,4,2,1,,6,6,5,4^1[8:1]*v1[8:1]/8,,,,4b,,,,7,,
||
らっぴんぐが制服
{8}8V63-1^8b[2:1]/3,,2,{16},4,4,,5,5,,,
||
ぷ。
笑(w)
{16}6,5,7,8,,4,4,6,27,,,,A2/E3/E4/Cf/E6/E7/A7,,,,
||
がんばっちゃ
やっちゃっちゃ
{8}4x-1b[8:1]/5x-8b[8:1],36,45,,4x-8b[8:1]/5x-1b[8:1],36,45,,
||
2,1h[8:1],,7,8h[8:1],,
そんときゃーっち&Release
ぎョッ
1x-4b[8:1]/8x-5b[8:1],27,18,,36,{16}2,1h[8:1],,7,8h[8:1],,
||
汗!
ho!
汗!
ho!
{8}1pp1pp1b[4:3]*pp1[8:3],5-8b[8:1],,5b,,5-8b[8:1],,5b,,
{16}2,2,3,3,{8}4,4,5w1b[8:1],4/6,5b,,
{16}7x/4x-6[8:1],,3,,2/4x-2b[8:1],2x,,8x,7x/4x-6[8:1],,5,,1/4x-2b[8:1],1x,,,
{16}4x-6[8:1]/6x,,5,,1/4x-2b[8:1],1x,,7,7x/4x-8[8:1],,6x,5x,4x,3x,2x,,
{16}2x/5x-3[8:1],,6,,7/5x-7b[8:1],7x,,7,2x/5x-3[8:1],,4,,8/5x-7b[8:1],8x,,,
{16}5x-3[8:1]/3x,,4,,8/5x-7b[8:1],7x,,3,3x/5xw1b[8:1],,{32}1x,2x,3x,4x,{16}5bx,,,,
{16}7x/4x-6[8:1],,3,,2/4x-2b[8:1],2x,,8x,7x/4x-6[8:1],,5,,1/4x-2b[8:1],1x,,,
{16}4x-6[8:1]/6x,,5,,1/4x-2b[8:1],1x,,7,7x/4x-8[8:1],,6x,5x,4x,3x,2x,,
{16}2x,5,3,4,4x,,7x,4,6,5,5x,,3x,4,,7,
6x/8x,,24,,57,,13,,26,,{24}3,4,3,{16}5b,,,,
{16}2,6,3,5,4,,37,,2,6,1,,8,4,7,5,6,,
57,,A3,6,5,6,C,6,5,6,E2,,28,,
3,3,4,,56,,78,,2,1,2,,6,5,6,,
8-4[8:1]/7,,2/1-5[8:1],,A8f,,A1f,,
6bx,7bx,8bx,,,,
26,,35,,37,,4,6,2,5,4,7,8,4,2,8h[8:1],,3,6,1,4,2,7pp4v2b[2:1],4,8,3,
||
お↓な↑の↓↑コ↑
{8}7bx,5bx,4bx,2bx,
{16}1x,8x,7x,6x,5x,,48,37,26,15,48,,2,5,3,4,4,7,5,6,8,7,1,6,
1b/5b,1b/5b,1b/5b,1b/5b,1b/5b,,,,
{16}A4,A5,D4,D6,E4,E6,A3,A6,E3,E7,D3,D7,B2,B7,A2,A7,
{16}A1,A8,D2,D8,E2,E8,A2,A7,E3,E7,D3,D7,B3,B6,A3,A6,
{16}A4,A5,D4,D6,E4,E6,A3,A6,E3,E7,D3,D7,B2,B7,A2,A7,
{8}Cf,,,5x/1x,7x-4[8:1]/3x-8[8:1],,7x/3x,,
||
おーえん団
{8}2x-4[8:1],6,6/2x-8[8:1],,{16}B5f/E5/2x-4[8:1],,,A7f/D7,2x-8[8:1],,B6f/E6,,
||
B7/B6/C
チェリーパイ
{8}2x-4[8:1],7x,7x/2x-8[8:1],,{16}5/2x-4[8:1],,,6,2x-8[8:1],,B7/B6/C,,
||
かんげー会
wave
your
hand!
{8}2x-4[8:1],5,5/2x-8[8:1],,{48}D6/2x-4[8:1],E6,B5,B4,,,,,,B4,B5,E6,2x-8[8:1]`D6,,,,,,D6,E6,B5,B4,,,
{8}2x-4[8:1],6,6/2,,{16}2x,,5x,5x,5x,5x,5xh[64:15]/4xh[64:15],,,,
||
存在感
Touches
disappeared
one
by
one
{64}E5,B5/B4,C,B1/B8,D1f/A1/A8,,,,{4},{16}E6/B5/E5/2x-4[8:1],,,A7/D7,2x-8[8:1],,E6,,
||
小惑星
So
there
is
a
slide's
star
{8}2x-4[8:1],5,5-7[8:1]/2x-8[8:1],,{16}5x/2x-4[8:1],,,5x,2x,,6x,,
{16}7,7,4,6,5,,2,2,5,3,4,,
A2f,4,3,5,A1f,7,2,8,A4f,6,2,4,A3f,7,4,6,Chf[4:1],,,,
{1},,
{4}5h[1:1]/4,4,4,4,4,4,4,4,3/5-8[2:1],3,3,3,2/5-8[2:1],2,2,2,8^5[2:1]/1,1,2,2,
{8}3,3,{16}3,3,3,3,3,3,3,3,3,3,3,3,
{4}3b^6[4:1],6^3[4:1],3^6[4:1],6-2[4:1],
2-6[4:1],6q2[4:1],2q6[4:1],6v4[4:1],
||
M
4-2[4:1]*-2[4:1],2-5[4:1]*-5[4:1],5-8[4:1]*-8[4:1],8-6[4:1]*-6[4:1],
||
M
6-8[4:1],8-5[4:1],5-2[4:1],2-4[4:1],
||
F
4v2[4:1]*v2[4:1],2v8[4:1]*v8[4:1],8^1[8:1]*^1[8:1],
||
C
4^6[4:1],6^8[4:1],
||
2
8^2[4:1]*^2[4:1],2-6[4:1]*-6[4:1],6-4[4:1]*-4[4:1],
4-2^1[4:1],1v7[4:1],7^6-4[4:1],4-2^1[4:1],1v7[4:1],7^6-4[4:1],
{12}3,3,3,{8}2,2,
{12}2^7[8:1],,5,,4,4,4-1[8:1],,2,,3,,
5-2[8:1],,1,,8,8,8-4[8:1],,2,,1,,
{12}8-5[8:1],,7,,6,6,6-1[8:1],,5,,5,,
5-8[8:1],,6,,4,4,4-7[8:1],,8,,1,,
{12}2^7[8:1],,5,,4,4,4-1[8:1],,2,,3,,
5-2[8:1],,1,,8,8,8-4[8:1],,2,,1,,
{12}8-5[8:1],,7,,6,6,6-1[8:1],,5,,4,,
{4}3-1-4-8b[4:3],A3,A1,A4,
{12}7^2[8:1],,4,B4/E4,5x,5x,A6/D7/5x-8[8:1],,7,A5/E6,6x,,
4-7[8:1]/B7/E8,,8x,B1/E1,1xh,1xh,A5/E6/1x-5[8:1],,7,A1/B1,8x,,
{12}1-4[8:1]/B3/B4,,2x,B2/E3,3x,3x,A6/E6/3x-8[8:1],,4,A3/E3,4x,,
4-1[8:1]/E1/B1,,3x,E5/B5,5xh,5xh,A8/D8/5x-2[8:1],,1,A5/E5,8x,,
{12}7^2[8:1],,4,B4/E4,5x,5x,A6/D7/5x-8[8:1],,7,A5/E6,6x,,
4-7[8:1]/B7/E8,,8x,B1/E1,1xh,1xh,A5/E6/1x-5[8:1],,7,A1/B1,8x,,
{12}1-4[8:1]/B3/B4,,2x,B2/E3,3x,3x,A6/E6/3x-8[8:1],,4,A3/E3,4x,,
{4}6x-8-5b[4:2],A6,A8,A5,
{4}2b/4b,4b/6b,2b/4b-1[8:1],,
{12}5b/7b,,3b,4b,,6b,5b/E7,,B7,B8/1bx,,3bx,
{4}2bx/4bx,4b/6b,2b/4b,{12}4b/6b,,3b,4b,,6b,5b-8[8:1],,4bx,5bx-2[8:1],,,5bx/7bx,,,
{4}5b/7b,3b/5b,7bs3[8:1]/5b,,
{12}4b/2b,,6b,5b,,3b,4b-1[8:1],,,4b/5b,,7bx,
{4}7bx,3b/5b,{12}7b/E3,,B2,B1/8bx,,3b,4b,,6b,5b-8[8:1],,4bx,5bx-2[8:1],,,5bx/7bx,,,
{4}8-2[8:1],8/2-7[8:1],2/7-3[8:1],7/3-6[8:1],
3/6-4[8:1],6/4-7[8:1],4/7-3[8:1],7/3-8[8:1],
{4}3/8-2[8:1],8/2-7[8:1],2/7-3[8:1],7/3-6[8:1],
3/6-4[8:1],6/4-7[8:1],4/7-3[8:1],7/3-8[8:1],
{4}A3/8-2[8:1],A8/2-7[8:1],A2/7-3[8:1],A7/3-6[8:1],
A3/6-4[8:1],A6/4-7[8:1],A4/7-3[8:1],A7/3-1[8:1],
{1}1w5[43.75#8:1],,
Chf[1:7],,,,,,,
{8},,,1x/5x,3x-8[8:1]/7x-4[8:1],,3x/7x,,
{16}7x/1x-6[8:1],,2,,3/1x^4[8:1],3x,,5x,{56}6x/1x-6[8:1],D2,A2,D3,A3,D4,A4,{16}8,,3x/1x^4[8:1],3x,,7,
{56}1x-6[8:1]/7x,D2,A2,D3,A3,D4,A4,{16}8,,3x/1x^4[8:1],3x,,5,{56}5x/1x-5b[8:1],D2,A2,D3,A3,D4,A4,{16}7x,8x,1x,2x,3x,,
{16}2x/8x-3[8:1],,7,,6/8x^5[8:1],6x,,4,{56}3x/8x-3[8:1],D8,A7,D7,A6,D6,A5,{16}1,,6x/8x^5[8:1],6x,,2,
{56}8x-3[8:1]/2x,D8,A7,D7,A6,D6,A5,{16}1,,6x/8x^5[8:1],7x,,2,{56}2x/8xw4b[8:1],D8,A7,D7,A6,D6,A5,{32}4x,3x,2x,1x,{16}8bx,,,,
{16}7x/1x-6[8:1],,2,,3/1x^4[8:1],3x,,5x,{56}6x/1x-6[8:1],D2,A2,D3,A3,D4,A4,{16}8,,3x/1x^4[8:1],3x,,7,
{56}1x-6[8:1]/7x,D2,A2,D3,A3,D4,A4,{16}8,,3x/1x^4[8:1],3x,,5,{56}5x/1x-5b[8:1],D2,A2,D3,A3,D4,A4,{16}7x,8x,1x,2x,3x,,
{16}7x,4,6,5,5x,,2x,5,3,4,4x,,6x,5,,2,
{8}1x,8,37,62,51,84,7b/3b,,
{16}4x,6,2,4,1x,,5,3,7x,5,8,,1x,7,3,1,4x,,
7,5,6x,,1,4,3x,5,4,7,2x,,46,,
2x,2,4,,3x/5x,,46,,7x,7,5,,6x/8x,,17,,
1-5[8:1]/3,,8-4[8:1]/6,,A1f,,A8f,,3bx,2bx,1bx,,
6x,,6,,1x/5x,,24,,3x,5,2,4,1x,3,8,,2x/6x,,3,3,
7x,5,8,2,6x,4,7,3,2xv4[8:1]/6xv8[8:1],15,48,,,,,,
5x/6x,,12,,3x/4x,,78,,2x,4,3,,7x,5,6,,
2x,4,8,6,5x,7,3,1,4bh/8bh,4bh/8bh,4bh/8bh,4bh/8bh,4bh/8bh,,,,
{16}A2,A3,D2,D4,E2,E4,A1,A4,E1,E5,D1,D5,B8,B5,A8,A5,
{16}A7,A6,D8,D6,E8,E6,A8,A5,E1,E5,D1,D5,B1,B4,A1,A4,
{16}A2,A3,D2,D4,E2,E4,A1,A4,E1,E5,D1,D5,B8,B5,A8,A5,
{8}Cf,,,4x/8x,2x-5[8:1]/6x-1[8:1],,2x/6x,,
{8}7x-5[8:1],3,3/7x-1[8:1],,{16}B2/B3/E3f/7x-5[8:1],,,E5f/B5/B4,7x-1[8:1],,E3f/B2/B3,,
{8}7x-5[8:1],2x,2x/7x-1[8:1],,{16}3b/7x-5[8:1],,,4b,7x-1[8:1],,4b,,
{8}7x-5[8:1],2,2/7x-1[8:1],,{16}C/7x-5[8:1],,,A2,7x-1[8:1],,E4/D4,,
{8}7x-5[8:1],4,4/7,,{16}7x,,1x,1x,1x,1x,1xh[64:15]/8xh[64:15],,,,
{64}E1,B1/B8,C,B5/B4,D5f/A5/A4,,,,{4},{16}3/7x-5[8:1],,,3,7x-1[8:1],,3,,
{8}7x-5[8:1],4,4/7x-1[8:1],,{16}A2/7x-5[8:1],,,E4/B3,7x,,B4,,
{16}2,2,5,3,4,,7,7,4,6,5,,
A7f/E7,5,6,4,A8f/E1,2,7,1,A5f/D6,3,7,5,A6f/E7,2,5,3,Chf[4:1],,,,
{4}B4,B3,B2,B1,B8,B7,B6,{8}B5,C,
{4}E4,E3,E2,E1,E8,E7,E6,{8}E5,C,
{4}A4,A3,A2,A1,A8,A7,A6,A5,
{4}Chf[1:1]/A4,A3,A2,A1,
{8},,,5/Cf,1w5[8:1]/Cf,,Cf,,
{16}1b/2b-6[8:1],,3,4,2^5[8:1],,8,7,2^7[8:1],,7,6,2,,6,5,
{16}4-8[8:1],,3-7[8:1],2,4^7qq8b[8:3],,3,,4,,1,,2,,2,,
3,1,2,8,1,,C,,7,5,6,4,5,3,4,2,
5h[8:1],,{32}1b,2,3,4,5,,,,8b,17,26,35,{16}4,,26,,8,,A5,E5,
7b^4[8:1]/B4,,2,3,7,,3,,2,5,3,4,1,,A4,E5,
2b^5[8:1]/B5,,7,6,2,,6,,7,4,6,5,8,,C,,
2b,4,3,5,4,6,5,7,8b,6,1,7,2,8,3,1,
4b,6,2,8,3b,5,1,7,{32}2b,3,4,5,6,7,8,1,{4}2b/6b,
{16}8b/7b-3[8:1],,6,5,7^4[8:1],,1,2,7^2[8:1],,2,3,7,,3,4,
{16}5-1[8:1],,6-2[8:1],7,5^2pp1b[8:3],,6,,5,,8,,7,,7,,
6,8,7,1,8,,C,,2,4,3,5,4,6,5,7,
4h[8:1],,{32}8b,7,6,5,4,,,,1b,82,73,64,{16}5,,73,,1,,A4,E5,
2b^5[8:1]/B5,,7,6,2,,6,,7,4,6,5,8,,A5,E5,
7b^4[8:1]/B4,,2,3,7,,3,,2,5,3,4,1,,C,,
7b,5,6,4,5,3,4,2,1b,3,8,2,7,1,6,8,
5b,3,7,1,6b,4,8,2,{32}7b,6,5,4,3,2,1,8,{4}7b/3b,
{8}2-5[8:1]/6-1[8:1],,2/6pp5[4:1],,5,5,,
{16}3,4,8,7,1,,{32}6,,,6,,5,,,,,,A1/B1/A2/D3/A3/D4/A4/D5/A5/D6/A6/D7/A7/A8/B8,{16},,,,
{8}26,1-4b[8:1]/8,27,1b/8b,6,4x/5x-8b[8:1],36,4b^1[8:1]/5bp1[8:1],3,
{4}4xq8[8:1]/5x^8[8:1],4x>5b[2:1]/5xp4b[2:1],4x/5x,
