&title=嗚呼 絢爛の泡沫が如く
&artist=ういにゃす、おっちょこバニー
&first=0.04
&des=Kondou
&lv_5=13+
&inote_5=(146){1},
{8}
7b/8bpp3[8:6],,,,5,5,6,6,
7bp4[8:5],,,,3,3,2,2,
1bpp5[8:6],,,,6,6,7,7,
8bp5[8:4],,4,4,3,3,2,2,
1-6[8:1]/4,,1/6V48[8:2],,7,7,5,,
8^5[8:1]/3,,8/5pp4[8:2],,3,3,1,,
2-5[8:1]/7,,2/5V38[8:2],,7,7,5^8[8:1],,
{16}2b^5[12:1],,,1b,,,7b,,6b-1[8:1]*q2[8:1]/2b,,,,,,,,
3h[8:2],,,4,,,1,,5/3h[8:2],,,5,,,1,,
6/3h[8:2],,,6,,,1,,73,,6,,58,,1,,
2q6[8:1]/7,,,,7,,8,,1q5[8:1],,,,2,,,,
34,,5,4,6^1[8:1],,5,,3pp5[8:1],,,,,,,,
7/3,,,3,4,,2,,71,,1,,25,,5,,
64,,6,5,7,,7,,82,,82,,13,,13,,
2-5[8:1],,,,1-6[8:1],,,,7h[8:2],,,,8,,,,
2,,2,4,3-7[8:1],,5,,7V14[8:2],,,,,,,,
8b-5[8:4],,,,,,,,,,4,,4,,3,,
1b^4[8:4],,,,,,,,,,5,,5,,6,,
8b-5[8:4],,,,,,,,,,4,,4,,,,
4/3b,,,1b/3,,,8b/1,,,6b/8,,,6/5b,,,,
4V28[8:2],,,,,,,,4V28[8:2],,,,,,,,
3q6[8:4],,,,,,,,,,,,7,,,,
4V28[8:2],,,,,,,,4V28[8:2],,,,5,,5,,
6,,6,,78,,81,,1/2pp1[8:2],,,,,,,,
6b-1[8:1],,,,2-6[8:1]/6,,,,4V61[8:2]/2,,,,1,,3,,
5v3[8:1],,8,,7-2[8:1],,6,,1,,,,8-4[8:1]/3v1[8:1],,,,
,,,,2-6[8:1],,2,,5-8[8:1],,5,,1-4[8:1]*-3[8:1],,1,,
1-6[8:1]*-7[8:1],,,,1-5[8:1],,,,1b,,,,7,,7,,
6b/1b^4[8:1],,1,,7q3[8:1],,7,,5h[8:2],,,,2,,1,,
8^5[8:1],,8,,2p6[8:1],,2,,4h[8:2],,,,8pp6[16:5],,1,,
2b,,,,4,,3,,2^5[8:1],,1,1,2,,8,,
7p3[8:1]/6,,,1,7,,8,,1q5[8:1]/5q1[8:1],,,,,,,,
7b-5[8:1]/3b,,4,4,7-3[8:1],,1,,7-5[8:1],,2,2,7V16[16:3],,4,,
7b/2,,5-2[8:1],,2-6[8:1],,8,,8,,,,71,,62,,
53,,2,2,4,,8,,75,,6,6,1-6[8:1],,3,,
5-1[8:1],,4,,2-5[8:1],,3,,8,,6,,74,,52,,
1bq5[8:1]/6b,,6,,1^6[8:1]/8,,8,,1/2,,2,,34,,45,,
6/5p1[8:1],,6,,5/8^3[8:1],,8,,7/8,,7,,6-1[8:1],,1,,
3b,,5qq6[8:2],,,,1,,8,,7h[8:2],,1,,3,,
6b/5b,,8,,3b/4b,,1,,6b-1[8:1]/2b^5[8:1],,,,,,,,
7b-4[8:1],,,,1-6[8:1],,,,3-8[8:1],,,,5-2[8:1],,,,
7^4[8:1],,,,2^7[8:1],,,,5^2[8:1],,,,8^5[8:1],,,,
3b-8[8:1],,,,6-3[8:1],,,,1-6[8:1],,,,5,,,,
2,4,3,7,5,6,1,4,3,8,5,6,1,1,4,4,
5b/3b-8[8:1],,,,5-2[8:1],,6,,7-4[8:1],,8,,1-6[8:1],,2,,
3^8[8:1],,4,,6^3[8:1],,7,,1^6[8:1],,2,,4^1[8:1],,5,,
7b-4[8:1],,8,,2-7[8:1],,3,,5-2[8:1],,6,,8,,8,,
7b,1,1,4b,3,4,2b,8,8,5b,6,5,{24}8b,7,6,3b,2,1,
{16}8bV25[8:2]/4bV61[8:2],,,,,,,,,,8,,8,,73,,
6bpp5[8:2]/2bpp1[8:2],,,,,,,,,,8,,8,,71,,
5bV74[8:2]/3bV14[8:2],,,,,,,,,,53,,53,,62,,
{32}7b/1b,2,3,4,,,7b/1b,6,5,4,,,8b/2b,3,4,5,,,8b/2b,7,6,5,,,1,,1,,3,2,1,8,{4}7w3[8:1],7b,
