&title=ワッカのしょーしょーゆーしょー
&artist=若
&smsg_5=気持ちヨロレイヒ~
&first=4.86
&lv_1=1
&lv_5=13+
&des_1=音
&des_5=GANTZ
&wholebpm=200
&demo_seek=62.9
&demo_len=10
&inote_1=(200)
{4}1,8,1,8,1,8,1,8,1,8,1,8,1,8,1,8,1,8,1,8,1,8,1,8,1,8,1,8,1,8,1,8,
1,8,1,8,1,8,1,8,1,8,1,8,1,8,1,8,1,8,1,8,1,8,1,8,1,8,1,8,1,8,1,8,E
&inote_5=(200)
{16}
1-5[8:1]/8-4[8:1],,,,18,,,,4^1[8:1]/5^8[8:1],,,,45,,,,
1,,8,,1,,27,,3-8[8:1]/6-1[8:1],,,,36,,,,
1,,2,,3,,8,,7,,6,,27,,18,,
{48}1b/8b,2b/7b,3b/6b,4b/5b,,,
{8},,,,,,,
{48}1b/8b,2b/7b,3b/6b,4b/5b,,,
{8},,,,,,,
{16}
1b/8b,,7h[4:3]/2,,2,,2,,2,,2,,2,,2,,
18,,,,8v5[8:1],,,,84,,3,,2,,1v4[8:1],,
,,1/5pp8[8:3],,,,5,,,,4,,3,,2,,
17,,,,8v6[8:1],,,,82,,2,,3,,4v2[8:1],,
,,4/7qq4[8:3],,,,71,,,,8,,1,,2,,
3-8[8:1],,,,34,,,,5,,6,,7,,8-6[8:1]/1-3[8:1],,
,,18,,,,45,,36,,27,,1-5[8:1]/8-4[8:1],,,,
18,,,,36,,,,2,,2,,7,,7,,
,,6,,46,,35,,2-8[8:1]/4,,,,2b/4-6[8:1],,,,
4b,,,,1V35[4:1],,,,5V31[4:1],,6,,7,,8-4[8:1],,
,,8>4[4:1],,,,8,,,,6,,7,,8,,
13,,,,8V64[4:1],,,,4V68[4:1],,3,,2,,1-5[8:1],,
,,1<5[4:1],,,,1,,,,3,,2,,1,,
8h[8:3]/6h[4:3],,,,,,,,2h[8:7],,,,,,8h[2:1],,
,,,,,,,,,,1,28,37,,,,
4^1[8:1]/6,,,,4,,6,,6h[4:1]/1h[4:1],,,,,,27,,
3h[8:7]/8,,8,,8,,8,,8,,8,,8,,8,,
3,,,,2V84[4:1]/6,,,,4v1[8:1],,6,,7,,8v5[8:1],,
,,8V24[4:1],,,,85,,,,5,,6,,7,,
73,,,,7V15[4:1],,,,5v8[8:1],,3,,2,,1v4[8:1],,
,,1V75[4:1],,,,14,,,,4,,3,,2,,
2h[4:3]/6h[8:3],,,,,,,,8h[8:7],,,,,,4h[2:1],,
,,,,,,,,,,84,,73,,62,,
1v3[8:1]/5v7[8:1],,,,15,,,,26,,26,,37,,3v8[8:1]/7v4[8:1],,
,,,,,,,,,,16,,7^5[8:1],,8,,
71,,2,,3^1[8:1],,4,,5,,6,,7^5[8:1],,8,,
1,,2,,3,,4,,36,,,,8h[8:1],,2,,
2h[8:1],,7,,7h[8:1],,1,,1h[8:1],,6,,6h[8:1],,3,,
3h[8:1],,7,,7h[8:1],,,,12,,83,,2^4[8:1],,1,,
82,,7,,6^8[8:1],,5,,4,,3,,2^4[8:1],,1,,
8,,7,,6,,5,,36,,,,1h[8:1],,7,,
7h[8:1],,2,,2h[8:1],,6,,6,,3,4,3,,6,5,
6,,47,,56,,,,2-5[8:1]/7-4[8:1],,,,2b/7b,,,,
4-1[8:1]/5,,,,4-7[8:1],,5,,4,,2-5[8:1],,,,27,,
,,8,,,,1>5[4:1]*<5[4:1],,,,1,,,,,,
4/5-8[8:1],,,,5-2[8:1],,4,,5,,7-4[8:1],,,,27,,
,,1,,,,8>4[4:1]*<4[4:1],,,,8,,,,,,
4h[8:1]/5h[8:1],,,,4-2[8:1],,5-7[8:1],,4,,5-1[8:1],,,,57,,
,,28,,,,8-4[8:1]/2-6[8:1],,,,28,,,,,,
{12}
34,,42,,16,,56,,57,,83,,
27,,16,,35,,27,,83,,74,,
87,,16,,25,,12,,83,,47,,
{16}
4b>5[2:1]/5b<4[2:1],,,,,,,,,,,,,,,,
{16}
45,,36,,27,,18,,1,2,3,4,5,6,7,8,
1/7-5[8:1],,7,,7/8v3[8:1],,8,,8,,5,,6,,7v4[8:1],,
1-4[8:1],,7,,1,,,,6-1[8:1]/5-1[8:1],,,,56,,,,
2^5[8:1],,1,,21,,8,,7,,6,5,6,5,6,5,
6,,47,,83,,27,,2v8[8:1]/6v4[8:1],,,,26,,,,
7/2-4[8:1],,2,,2/1v6[8:1],,1,,1,,4,,3,,2v5[8:1],,
8-5[8:1],,2,,8,,,,3-8[8:1]/4-8[8:1],,,,34,,,,
7^4[8:1],,8,,7/8v2[8:1],,,,8v6[8:1],,,,8,,,,
16,,78,,78,,78,,78,,78,,78,,78,,
7-5[8:1],,7,,7/1V35[4:1],,1,,1,,6,,7,,8-6[8:1],,
4-2[8:1],,8,,4,,,,1v4[8:1]/5v8[8:1],,,,15,,,,
84,,37,,26,,15,,3-5[8:1]/7-5[8:1],,,,37,,,,
5,,46,,37,,28,,1-4[8:1]*-6[8:1],,,,1b,,,,
4-2[8:1],,6,,4-1[8:1],,6,,4-8[8:1],,6,,4,,,,
5-7[8:1],,3,,5-8[8:1],,3,,5-1[8:1],,3,,5,,,,
1-3[8:1]/8-4[8:1],,,,1-5[8:1]/8-6[8:1],,,,1b/8b,,,,83,,,,
1V36[4:1]/7,,,,,,,,1V74[4:1],,,,,,,,
1V35[4:1],,,,,,,,1V75[4:1],,,,,,,,
2-7[8:1]*-5[8:1],,,,2,,,,7-2[8:1]*-4[8:1],,,,7,,,,
2-4[8:1],,2,,2/1-7[8:1],,1,,1-5[8:1],,,,1b/7,,,,
78,,78,,16,,16,,12,,12,,38,,38,,
7-4[8:1],,2,,7,,2,,3-8[8:1]/4-7[8:1],,,,3b/4b,,,,
1-5[8:1],,1,7,1,,7-4[8:1],,2,,7,,1,,26,,
18,,2,4,3,,7,5,6,,18,,27,,,,
45,,3,4,3,,45,,6,5,6,,45,,3,4,
3,,45,,45,,36,,27,,1w5[8:1]/8w4[8:1],,27,,1b/8b,,
{1},,,E
