&title=あけましておめでとうございます!!
&artist=からめる
&first=0.66
&des=あけおめ2026
&lv_7=新
&inote_7=(130)
{1},
{64}4,,,,,5,,,4,,,,,,,E6,{8}A6,,
{64},,,,,,18,,,,72,,,,63,,,,,,5/4h[64:9],,,,,,,,,E6,,,
{64},,,E7/Ch[64:2],,,,,,,,,,,,,
(676767)
{1}7b/8b/1b/2b/3b/4b/5b/6b,
(130)
{32}Ch[16:17],,,,,
{32}8/1`3^2[13000#1:2],7`2^3[13000#1:2],8/1`6`3^2[13000#1:2]`3^2[13000#1:2],7`2^3[13000#1:2],8/1`6`3^2[13000#1:2]`3^2[13000#1:2],7`2^3[13000#1:2],8/1`6`3^2[13000#1:2],7`2^3[13000#1:2],8/1`6`3^2[13000#1:2],7`2^3[13000#1:2],8/1`6`3^2[13000#1:2],7`2^3[13000#1:2],8/1`6`3^2[13000#1:2],7`2^3[13000#1:2],8/1`6`3^2[13000#1:2],7`2^3[13000#1:2],8/1`6`3^2[13000#1:2],7`2^3[13000#1:2],8/1`6`3^2[13000#1:2],7`2^3[13000#1:2],8/1`6`3^2[13000#1:2],7`2^3[13000#1:2],8/1`6`3^2[13000#1:2],7`2^3[13000#1:2],8/1`6`3^2[13000#1:2],7`2^3[13000#1:2],8/1`6`3^2[13000#1:2],7`2^3[13000#1:2],8/1`6`3^2[13000#1:2],7`2^3[13000#1:2],8/1`6`3^2[13000#1:2],7`2^3[13000#1:2],8/1`6`3^2[13000#1:2],7`2^3[13000#1:2],8/1`6`3^2[13000#1:2],7`2^3[13000#1:2],8/1`6`3^2[13000#1:2],7`2^3[13000#1:2],8/1`6`3^2[13000#1:2],7`2^3[13000#1:2],8/1`6`3^2[13000#1:2],7`2^3[13000#1:2],8/1`6`3^2[13000#1:2],7`2^3[13000#1:2],8/1`6`3^2[13000#1:2],7`2^3[13000#1:2],8/1`6`3^2[13000#1:2],7`2^3[13000#1:2],8/1`6`3^2[13000#1:2],7`2^3[13000#1:2],8/1`6`3^2[13000#1:2],7`2^3[13000#1:2],
(116)
8/1`6`3^2[13000#1:2],7`2^3[13000#1:2],8/1`6`3^2[13000#1:2],7`2^3[13000#1:2],,,,,
{4},
{64},5x,,5x,,,4x/3x,,,4x/3x,,,3h[64:20]/E5,,,,E6,,B6,,E7,,B7,,
{64}8?s4[232#16:1]/1?z5[232#16:1]`Cf,,,,,,,,
(131)
{8}7?pp1^8-5[252#16:1],8?s4[262#16:1]/1?z5[262#16:1],7?pp1^8-5[300#16:1],5?-8-4-1[252#4:1],7?v4[160#33:12]/1?v4[160#33:12],,,,
(131){4},
(129.75)
{8}5/4,,7,5,,5,7,6/4,5h[4:1]/3,2,1,8,1-5[8:1]/6,2,1/6,A7/B7,8,7,6/5`8?-5[4:4]/1?-4[4:4],7,8/1,2,3/4,2,2h[4:1],4,4,7h[4:1],5,5,6/4,5/3,
{8}4-1[4:3]/5-8[4:3],,2,4,,4,2`1?^2[4:2]/8?^7[4:2],3/5,4h[4:1]/6,7,8,1,8-4[8:1]/3,7,8/3,A2/B2,1,2,3/4,2,1/8,7,6/5,7,7h[4:1],5,5,2h[4:1],4,4,3/5,4/6h[8:5],
(676767)
{16}2b/7b,
{16}A7f`A2f`B7f`B2f,
(129.75)
{4}4,
(676767)
{16}2b/7b,
{16}A7f`A2f`B7f`B2f,
(129.75)
{4}4,
(676767)
{16}2b/7b,
{16}A7f`A2f`B7f`B2f,
(129.75)
{8}4,5,
(676767)
{16}2b/7b,
{16}A7f`A2f`B7f`B2f,
(129.75)
{8}3h[8:6],5,
(676767)
{16}2b/7b,
{16}A7f`A2f`B7f`B2f,
(129.75)
{4}5,
(676767)
{16}2b/7b,
{16}A7f`A2f`B7f`B2f,
(129.75)
{4}5,
(676767)
{16}2b/7b,
{16}A7f`A2f`B7f`B2f,
(129.75)
{8}5,4,
(676767)
{16}2b/7b,
{16}A7f`A2f`B7f`B2f,
(129.75)
{8}5-8[8:1],4,
(676767)
{16}2b/7b,
{16}A7f`A2f`B7f`B2f,
(129.75)
{4}4-1[8:1],
(676767)
{16}2b/7b,
{16}A7f`A2f`B7f`B2f,
(129.75)
{4}5-8[8:1],
(676767)
{16}2b/7b,
{16}A7f`A2f`B7f`B2f,
(129.75)
{8}4-1[8:1],4,
(676767)
{16}2b/7b,
{16}A7f`A2f`B7f`B2f,
(129.75)
{8}5v6[8:1],5,
(676767)
{16}2b/7b,
{16}A7f`A2f`B7f`B2f,
(129.75)
{4}4v3[8:1],
(676767)
{16}2b/7b,
{16}A7f`A2f`B7f`B2f,
(129.75)
{4}4v6[8:1],
(676767)
{16}2b/7b,
{16}A7f`A2f`B7f`B2f,
(129.75)
{8}5-8[8:1],5,
(676767)
{16}2b/7b,
{16}A7f`A2f`B7f`B2f,
(129.75)
{8}4-1[8:1],5h[8:1],
(676767)
{16}2b/7b,
{16}A7f`A2f`B7f`B2f,
(129.75)
{8}4-8[8:1],5,
(676767)
{16}2b/7b,
{16}A7f`A2f`B7f`B2f,
(129.75)
{8}4v6[8:1],5,
(676767)
{16}2b/7b,
{16}A7f`A2f`B7f`B2f,
(129.75)
{8}5-8[8:1],5,
(676767)
{16}2b/7b,
{16}A7f`A2f`B7f`B2f,
(129.75)
{32}4,,,,{128}4,4,4,4,4,4,4,4,3,3,3,3,3,3,3,3,
(676767)
{16}2b/7b,
{16}A7f`A2f`B7f`B2f,
(129.75)
{128}4,4,4,4,4,4,4,4,3,3,3,3,3,3,3,3,{48}A6,,A5,,E6/B6/B5,,
(676767)
{16}2b/7b,
{16}A7f`A2f`B7f`B2f,
(129.75)
{128}4,4,4,4,4,4,4,4,{48}A6,,A5,,E6/B6/B5,,{128}3,3,3,3,3,3,3,3,
(676767)
{16}2b/7b,
{16}A7f`A2f`B7f`B2f,
(129.75)
{48}A6,,A5,,E6/B6/B5,,{128}4,4,3,3,,,,,,,,,,,,,
(676767)
{16}2b/7b,
{16}A7f`A2f`B7f`B2f,
(129.75)
{128}4,4,4,4,4,4,4,4,3,3,3,3,3,3,3,3,{48}A6,,A5,,E6/B6/B5,,
(676767)
{16}2b/7b,
{16}A7f`A2f`B7f`B2f,
(129.75)
{128}4,4,4,4,4,4,4,4,{48}A6,,A5,,E6/B6/B5,,{128}3,3,3,3,3,3,3,3,
(676767)
{16}2b/7b,
{16}A7f`A2f`B7f`B2f,
(129.75)
{48}A6,,A5,,E6/B6/B5,,{128}4,4,3,3,,,,,,,,,,,,,(676767)
{16}2b/7b,
{16}A7f`A2f`B7f`B2f,
(129.75)
{128}4,4,4,4,4,4,4,4,3,3,3,3,3,3,3,3,{48}A6,,A5,,E6/B6/B5,,
(676767)
{16}2b/7b,
{16}A7f`A2f`B7f`B2f,
(129.75)
{128}4,4,4,4,4,4,4,4,{48}A6,,A5,,E6/B6/B5,,{128}3,3,3,3,3,3,3,3,
(676767)
{16}2b/7b,
{16}A7f`A2f`B7f`B2f,
(129.75)
{48}A6,,A5,,E6/B6/B5,,{128}4,4,4,4,4,4,4,4,{48}A6,,A5,
(676767)
{16}2b/7b,
{16}A7f`A2f`B7f`B2f,
(129.75)
{48},E6/B6/B5,,{128}4,4,4,4,4,4,4,4,{48}A6,,A5,,E6/B6/B5,,
(676767)
{16}2b/7b,
{16}A7f`A2f`B7f`B2f,
(129.75)
{128}4,4,4,4,4,4,4,4,{48}A6,,A5,,E6/B6/B5,,,,,
(676767)
{16}2b/7b,
{16}A7f`A2f`B7f`B2f,
(129.75)
{48}A6,A5,A4,A3,A6,A5,A4,A3,A6,A5,A4,A3,
(676767)
{16}2b/7b,
{16}A7f`A2f`B7f`B2f,
(129.75)
{48}A6,A5,A4,A3,,,,,,,,,
(676767)
{16}2b/7b,
{16}A7f`A2f`B7f`B2f,
(129.75)
{96}A6f,A5f,A4f,A3f,A6f,A5f,A4f,A3f,A6f,A5f,A4f,A3f,A6f,A5f,A4f,A3f,A6f,A5f,A4f,A3f,A6f,A5f,A4f,A3f,
(676767)
{16}2b/7b,
{16}A7f`A2f`B7f`B2f,
(129.75)
{96}A6f,A5f,A4f,A3f,A6f,A5f,A4f,A3f,,,,,,,,,,,,,,,,,
(676767)
{16}2b/7b,
{16}A7f`A2f`B7f`B2f,
(129.75)
{192}A6f/A6f,A5f/A5f,A4f/A4f,A3f/A3f,A6f/A6f,A5f/A5f,A4f/A4f,A3f/A3f,A6f/A6f,A5f/A5f,A4f/A4f,A3f/A3f,A6f/A6f,A5f/A5f,A4f/A4f,A3f/A3f,A6f/A6f,A5f/A5f,A4f/A4f,A3f/A3f,A6f/A6f,A5f/A5f,A4f/A4f,A3f/A3f,A6f/A6f,A5f/A5f,A4f/A4f,A3f/A3f,A6f/A6f,A5f/A5f,A4f/A4f,A3f/A3f,A6f/A6f,A5f/A5f,A4f/A4f,A3f/A3f,A6f/A6f,A5f/A5f,A4f/A4f,A3f/A3f,A6f/A6f,A5f/A5f,A4f/A4f,A3f/A3f,A6f/A6f,A5f/A5f,A4f/A4f,A3f/A3f,
(676767)
{16}2b/7b,
{16}A7f`A2f`B7f`B2f,
(129.75)
{32}6/5,4b`3b,,,6/5,4b`3b,,,
(676767)
{16}2b/7b,
{16}A7f`A2f`B7f`B2f,
(129.75)
{32}6/5,4b`3b,,,6/5,4b`3b,,,
(676767)
{16}2b/7b,
{16}A7f`A2f`B7f`B2f,
(129.75)
{48}A6,A5,A4,A3,A6,A5,A4,A3,A6,A5,A4,A3,
(676767)
{16}2b/7b,
{16}A7f`A2f`B7f`B2f,
(129.75)
{48}A6,A5,A4,A3,,,,,,,,,
(676767)
{16}2b/7b,
{16}A7f`A2f`B7f`B2f,
(129.75)
{12}5/6,3/4,5bh[12:4]/6bh[12:4],
(676767)
{16}2b/7b,
{16}A7f`A2f`B7f`B2f,
(129.75)
{16},,,,
(676767)
{16}2b/7b,
{16}A7f`A2f`B7f`B2f,
(129.75)
{12},,3/4,
(676767)
{16}2b/7b,
{16}A7f`A2f`B7f`B2f,
(129.75)
{12}5/6,{48}4bh[12:5]/3bh[12:5],65,65,65,65,65,65,65,
(676767)
{16}2b/7b,
{16}A7f`A2f`B7f`B2f,
(129.75)
{64}65,65,65,65,65,65,65,65,{128}65,65,65,65,65,65,65,65,65,65,65,65,65,65,65,65,
(676767)
{16}2b/7b,
{16}A7f`A2f`B7f`B2f,
(129.75)
{8}65,{192}A6f/A6f/6b,A5f/A5f/5b,A4f/A4f/4b,A3f/A3f/3b,A6f/A6f/6b,A5f/A5f/5b,A4f/A4f/4b,A3f/A3f/3b,A6f/A6f/6b,A5f/A5f/5b,A4f/A4f/4b,A3f/A3f/3b,A6f/A6f/6b,A5f/A5f/5b,A4f/A4f/4b,A3f/A3f/3b,A6f/A6f/6b,A5f/A5f/5b,A4f/A4f/4b,A3f/A3f/3b,A6f/A6f/6b,A5f/A5f/5b,A4f/A4f/4b,A3f/A3f/3b,
(676767)
{16}2b/7b,
{16}A7f`A2f`B7f`B2f,
(129.75)
{192}A6f/A6f/6b,A5f/A5f/5b,A4f/A4f/4b,A3f/A3f/3b,A6f/A6f/6b,A5f/A5f/5b,A4f/A4f/4b,A3f/A3f/3b,A6f/A6f/6b,A5f/A5f/5b,A4f/A4f/4b,A3f/A3f/3b,A6f/A6f/6b,A5f/A5f/5b,A4f/A4f/4b,A3f/A3f/3b,A6f/A6f/6b,A5f/A5f/5b,A4f/A4f/4b,A3f/A3f/3b,A6f/A6f/6b,A5f/A5f/5b,A4f/A4f/4b,A3f/A3f/3b,A6f/A6f/6b,A5f/A5f/5b,A4f/A4f/4b,A3f/A3f/3b,A6f/A6f/6b,A5f/A5f/5b,A4f/A4f/4b,A3f/A3f/3b,A6f/A6f/6b,A5f/A5f/5b,A4f/A4f/4b,A3f/A3f/3b,A6f/A6f/6b,A5f/A5f/5b,A4f/A4f/4b,A3f/A3f/3b,A6f/A6f/6b,A5f/A5f/5b,A4f/A4f/4b,A3f/A3f/3b,A6f/A6f/6b,A5f/A5f/5b,A4f/A4f/4b,A3f/A3f/3b,
(676767)
{16}2b/7b,
{16}A7f`A2f`B7f`B2f,
(129.75)
{192}A6f/A6f/6b/7?-5v4-2[4:8]/6?-3[4:8]/8?-4[4:8]/1?-5[4:8],A5f/A5f/5b,A4f/A4f/4b,A3f/A3f/3b,,,,,,,,,,,,,,,,,,,,,,,,,,,,,,,,,,,,,,,,,,,,,
(130)
{4},,,,,,,
{128}A1f,A2f,A3f,A4f,A5f,A6f,A7f,A8f,D1f,D2f,D3f,D4f,D5f,D6f,D7f,D8f,E1f,E2f,E3f,E4f,E5f,E6f,E7f,E8f,B1f,B2f,B3f,B4f,B5f,B6f,B7f,B8f,
(113)
{1}Ch[2:1],
(160)
{16}6/5,,,5/4,
(159),,4/3,,
(676767)
{16}2b/7b/8b/1b,
{16}A7f`A2f`B7f`B2f`A8f/A1f/B8f/B1f,
(129)
{16}Ch[8:3],,,,
(676767)
{16}2b/7b/8b/1b,
{16}A7f`A2f`B7f`B2f`A8f/A1f/B8f/B1f,
(129)
{16},,
{128}3b,4b,5b,6b,3b,4b,5b,6b,3b,4b,5b,6b,3b,4b,5b,6b,
(676767)
{16}2b/7b/8b/1b,
{16}A7f`A2f`B7f`B2f`A8f/A1f/B8f/B1f,
(129)
{128}3b,4b,5b,6b,3b,4b,5b,6b,3b,4b,5b,6b,3b,4b,5b,6b,
{256}3b,4b,5b,6b,3b,4b,5b,6b,3b,4b,5b,6b,3b,4b,5b,6b,3b,4b,5b,6b,3b,4b,5b,6b,3b,4b,5b,6b,3b,4b,5b,6b,
(676767)
{16}2b/7b/8b/1b,
{16}A7f`A2f`B7f`B2f`A8f/A1f/B8f/B1f,
(129)
{24}Ch[4:1],,5/4/E5,,,,
(676767)
{16}2b/7b/8b/1b,
{16}A7f`A2f`B7f`B2f`A8f/A1f/B8f/B1f,
(129)
{16}5/4/E5,,,,
(676767)
{16}2b/7b/8b/1b,
{16}A7f`A2f`B7f`B2f`A8f/A1f/B8f/B1f,
(129)
{24}Ch[24:4],,5/4/E5,,{192}6b/3b,6b/3b,6b/3b,3b/6b,3b/6b,3b/6b,3b/6b,3b/6b,3b/6b,3b/6b,3b/6b,3b/6b,3b/6b,3b/6b,3b/6b,3b/6b,
(676767)
{16}2b/7b/8b/1b,
{16}A7f`A2f`B7f`B2f`A8f/A1f/B8f/B1f,
(129)
{192}6b/3b,6b/3b,6b/3b,3b/6b,3b/6b,3b/6b,3b/6b,3b/6b,3b/6b,3b/6b,3b/6b,{16},,6h[24:1]/5h[32:1],
(676767)
{16}2b/7b/8b/1b,
{16}A7f`A2f`B7f`B2f`A8f/A1f/B8f/B1f,
(129)
{16}3h[24:1]/4h[32:1],6h[16:2],4,{192}3b,3b,3b,3b,3b,3b,3b,3b,3b,3b,3b,3b,
(676767)
{16}2b/7b/8b/1b,
{16}A7f`A2f`B7f`B2f`A8f/A1f/B8f/B1f,
(129)
{16}6h[24:1]/5h[32:1],3h[16:2],5,{192}6b,6b,6b,6b,6b,6b,6b,6b,6b,6b,6b,6b,
(676767)
{16}2b/7b/8b/1b,
{16}A7f`A2f`B7f`B2f`A8f/A1f/B8f/B1f,
(129)
{24}3,4,3,6,B5/B4/E5f,,
(676767)
{16}2b/7b/8b/1b,
{16}A7f`A2f`B7f`B2f`A8f/A1f/B8f/B1f,
(129)
{16},{128}A6f/B6f,A5f/B5f,A4f/B4f,A3f/B3f,A6f/B6f,A5f/B5f,A4f/B4f,A3f/B3f,A6f/B6f,A5f/B5f,A4f/B4f,A3f/B3f,A6f/B6f,A5f/B5f,A4f/B4f,A3f/B3f,A6f/B6f,A5f/B5f,A4f/B4f,A3f/B3f,A6f/B6f,A5f/B5f,A4f/B4f,A3f/B3f,
(676767)
{16}2b/7b/8b/1b,
{16}A7f`A2f`B7f`B2f`A8f/A1f/B8f/B1f,
(129)
{128}A6f/B6f,A5f/B5f,A4f/B4f,A3f/B3f,A6f/B6f,A5f/B5f,A4f/B4f,A3f/B3f,
{16}6h[24:1],3h[24:1],5h[24:1],
(676767)
{16}2b/7b/8b/1b,
{16}A7f`A2f`B7f`B2f`A8f/A1f/B8f/B1f,
(129)
{16}5b/4b/6b/3b,4h[24:1],6h[24:1],3h[24:1],
(676767)
{16}2b/7b/8b/1b,
{16}A7f`A2f`B7f`B2f`A8f/A1f/B8f/B1f,
(129)
{32},,6b/3b/B3/E4/E3/B6/E7/E6,,,,5b/4b/D5/E5/B5/B4,,
(676767)
{16}2b/7b/8b/1b,
{16}A7f`A2f`B7f`B2f`A8f/A1f/B8f/B1f,
(129)
{16},,{128}A6f/B6f/6b,A5f/B5f/5b,A4f/B4f/4b,A3f/B3f/3b,A6f/B6f/6b,A5f/B5f/5b,A4f/B4f/4b,A3f/B3f/3b,A6f/B6f/6b,A5f/B5f/5b,A4f/B4f/4b,A3f/B3f/3b,A6f/B6f/6b,A5f/B5f/5b,A4f/B4f/4b,A3f/B3f/3b,
(676767)
{16}2b/7b/8b/1b,
{16}A7f`A2f`B7f`B2f`A8f/A1f/B8f/B1f,
(129)
{128}A6f/B6f/6b,A5f/B5f/5b,A4f/B4f/4b,A3f/B3f/3b,A6f/B6f/6b,A5f/B5f/5b,A4f/B4f/4b,A3f/B3f/3b,A6f/B6f/6b,A5f/B5f/5b,A4f/B4f/4b,A3f/B3f/3b,A6f/B6f/6b,A5f/B5f/5b,A4f/B4f/4b,A3f/B3f/3b,
{128}A6f/B6f/6b,A5f/B5f/5b,A4f/B4f/4b,A3f/B3f/3b,A6f/B6f/6b,A5f/B5f/5b,A4f/B4f/4b,A3f/B3f/3b,A6f/B6f/6b,A5f/B5f/5b,A4f/B4f/4b,A3f/B3f/3b,A6f/B6f/6b,A5f/B5f/5b,A4f/B4f/4b,A3f/B3f/3b,
(676767)
{16}2b/7b/8b/1b,
{16}A7f`A2f`B7f`B2f`A8f/A1f/B8f/B1f,
(129)
{16},,,{256}A6f/B6f/6b,A5f/B5f/5b,A4f/B4f/4b,A3f/B3f/3b,A6f/B6f/6b,A5f/B5f/5b,A4f/B4f/4b,A3f/B3f/3b,A6f/B6f/6b,A5f/B5f/5b,A4f/B4f/4b,A3f/B3f/3b,A6f/B6f/6b,A5f/B5f/5b,A4f/B4f/4b,A3f/B3f/3b,
(676767)
{16}2b/7b/8b/1b,
{16}A7f`A2f`B7f`B2f`A8f/A1f/B8f/B1f,
(129)
{256}A6f/B6f/6b,A5f/B5f/5b,A4f/B4f/4b,A3f/B3f/3b,A6f/B6f/6b,A5f/B5f/5b,A4f/B4f/4b,A3f/B3f/3b,A6f/B6f/6b,A5f/B5f/5b,A4f/B4f/4b,A3f/B3f/3b,A6f/B6f/6b,A5f/B5f/5b,A4f/B4f/4b,A3f/B3f/3b,
{256}A6f/B6f/6b,A5f/B5f/5b,A4f/B4f/4b,A3f/B3f/3b,A6f/B6f/6b,A5f/B5f/5b,A4f/B4f/4b,A3f/B3f/3b,A6f/B6f/6b,A5f/B5f/5b,A4f/B4f/4b,A3f/B3f/3b,A6f/B6f/6b,A5f/B5f/5b,A4f/B4f/4b,A3f/B3f/3b,
{256}A6f/B6f/6b,A5f/B5f/5b,A4f/B4f/4b,A3f/B3f/3b,A6f/B6f/6b,A5f/B5f/5b,A4f/B4f/4b,A3f/B3f/3b,A6f/B6f/6b,A5f/B5f/5b,A4f/B4f/4b,A3f/B3f/3b,A6f/B6f/6b,A5f/B5f/5b,A4f/B4f/4b,A3f/B3f/3b,
{256}A6f/B6f/6b,A5f/B5f/5b,A4f/B4f/4b,A3f/B3f/3b,A6f/B6f/6b,A5f/B5f/5b,A4f/B4f/4b,A3f/B3f/3b,A6f/B6f/6b,A5f/B5f/5b,A4f/B4f/4b,A3f/B3f/3b,A6f/B6f/6b,A5f/B5f/5b,A4f/B4f/4b,A3f/B3f/3b,
(676767)
{16}2b/7b/8b/1b,
{16}A7f`A2f`B7f`B2f`A8f/A1f/B8f/B1f,
(129)
{512}A6f/B6f/6b,A5f/B5f/5b,A4f/B4f/4b,A3f/B3f/3b,A6f/B6f/6b,A5f/B5f/5b,A4f/B4f/4b,A3f/B3f/3b,A6f/B6f/6b,A5f/B5f/5b,A4f/B4f/4b,A3f/B3f/3b,A6f/B6f/6b,A5f/B5f/5b,A4f/B4f/4b,A3f/B3f/3b,A6f/B6f/6b,A5f/B5f/5b,A4f/B4f/4b,A3f/B3f/3b,A6f/B6f/6b,A5f/B5f/5b,A4f/B4f/4b,A3f/B3f/3b,A6f/B6f/6b,A5f/B5f/5b,A4f/B4f/4b,A3f/B3f/3b,A6f/B6f/6b,A5f/B5f/5b,A4f/B4f/4b,A3f/B3f/3b,
{512}A6f/B6f/6b,A5f/B5f/5b,A4f/B4f/4b,A3f/B3f/3b,A6f/B6f/6b,A5f/B5f/5b,A4f/B4f/4b,A3f/B3f/3b,A6f/B6f/6b,A5f/B5f/5b,A4f/B4f/4b,A3f/B3f/3b,A6f/B6f/6b,A5f/B5f/5b,A4f/B4f/4b,A3f/B3f/3b,A6f/B6f/6b,A5f/B5f/5b,A4f/B4f/4b,A3f/B3f/3b,A6f/B6f/6b,A5f/B5f/5b,A4f/B4f/4b,A3f/B3f/3b,A6f/B6f/6b,A5f/B5f/5b,A4f/B4f/4b,A3f/B3f/3b,A6f/B6f/6b,A5f/B5f/5b,A4f/B4f/4b,A3f/B3f/3b,
{512}A6f/B6f/6b,A5f/B5f/5b,A4f/B4f/4b,A3f/B3f/3b,A6f/B6f/6b,A5f/B5f/5b,A4f/B4f/4b,A3f/B3f/3b,A6f/B6f/6b,A5f/B5f/5b,A4f/B4f/4b,A3f/B3f/3b,A6f/B6f/6b,A5f/B5f/5b,A4f/B4f/4b,A3f/B3f/3b,A6f/B6f/6b,A5f/B5f/5b,A4f/B4f/4b,A3f/B3f/3b,A6f/B6f/6b,A5f/B5f/5b,A4f/B4f/4b,A3f/B3f/3b,A6f/B6f/6b,A5f/B5f/5b,A4f/B4f/4b,A3f/B3f/3b,A6f/B6f/6b,A5f/B5f/5b,A4f/B4f/4b,A3f/B3f/3b,
{512}A6f/B6f/6b,A5f/B5f/5b,A4f/B4f/4b,A3f/B3f/3b,A6f/B6f/6b,A5f/B5f/5b,A4f/B4f/4b,A3f/B3f/3b,A6f/B6f/6b,A5f/B5f/5b,A4f/B4f/4b,A3f/B3f/3b,A6f/B6f/6b,A5f/B5f/5b,A4f/B4f/4b,A3f/B3f/3b,A6f/B6f/6b,A5f/B5f/5b,A4f/B4f/4b,A3f/B3f/3b,A6f/B6f/6b,A5f/B5f/5b,A4f/B4f/4b,A3f/B3f/3b,A6f/B6f/6b,A5f/B5f/5b,A4f/B4f/4b,A3f/B3f/3b,A6f/B6f/6b,A5f/B5f/5b,A4f/B4f/4b,A3f/B3f/3b,
(676767)
{16}2b/7b/8b/1b,
{16}A7f`A2f`B7f`B2f`A8f/A1f/B8f/B1f,
(129)
{16},
(676767)
{67}Ch[130#1:1]`E1/E3/E5/E7/D2/D4/D6/D8`E2`E4`E6`E8`D1`D3`D5`D7`A1/A2/A3/A4/A5/A6/A7/A8`B1/B2`B3`B4`B5/B6`B7`B8,,,
(130.5)
{4},,,E1h[67:1],
{8},,A1/B8h[67:1],A1/B8h[67:1],A2/B7h[67:1],,A3/B6h[67:1],A2/B7h[67:1],
{64}A3/B6h[67:1],A2/B5h[67:1],A1/B4h[67:1],,,,,,
{64}A7/B2h[67:1],A6/B1h[67:1],A5/B8h[67:1],,,,,,
{64}A1/B8h[67:1],A2/B7h[67:1],A3/B6h[67:1],A4/B5h[67:1],A3/B6h[67:1],A2/B7h[67:1],A1/B8h[67:1],A2/B7h[67:1],A3/B6h[67:1],A4/B5h[67:1],,,,,,,
{8}A8/A6/B2h[67:1]/B4h[67:1],Ch[67:1],
(160)
{8}A4/A2/B6h[67:1]/B8h[67:1],,
(120)
{8}Ch[4:7],,,
{64}A1f,A2f,A3f,A4f,A5f,A6f,A7f,A8f,A1f,A2f,A3f,A4f,A5f,A6f,A7f,A8f,A1f,A2f,A3f,A4f,A5f,A6f,A7f,A8f,A1f,A2f,A3f,A4f,A5f,A6f,A7f,A8f,A1f,A2f,A3f,A4f,A5f,A6f,A7f,A8f,A1f,A2f,A3f,A4f,A5f,A6f,A7f,A8f,A1f,A2f,A3f,A4f,A5f,A6f,A7f,A8f,A1f,A2f,A3f,A4f,A5f,A6f,A7f,A8f,A1f,A2f,A3f,A4f,A5f,A6f,A7f,A8f,A1f,A2f,A3f,A4f,A5f,A6f,A7f,A8f,A1f,A2f,A3f,A4f,A5f,A6f,A7f,A8f,A1f,A2f,A3f,A4f,A5f,A6f,A7f,
(676767)
{67}B1/B2,E2,E3/B3,
(124.8)
{8}A8f,,,,,,,,
(676767)
{67}B7h[67:1]/B8h[67:1],
(203.67)
{256}C,B4,B3,E3,E4,A4,D4,A3,D3,
{256}C,B4,B3,E3,E4,A4,D4,A3,D3,
{256}C,B4,B3,E3,E4,A4,D4,A3,D3,
{256}C,B4,B3,E3,E4,A4,D4,A3,D3,
{256}C,B4,B3,E3,E4,A4,D4,A3,D3,
{256}C,B4,B3,E3,E4,A4,D4,A3,D3,
{256}C,B4,B3,E3,E4,A4,D4,A3,D3,
{256}C,B4,B3,E3,E4,A4,D4,A3,D3,
{256}C,B4,B3,E3,E4,A4,D4,A3,D3,
{256}C,B4,B3,E3,E4,A4,D4,A3,D3,
{256}C,B4,B3,E3,E4,A4,D4,A3,D3,
{256}C,B4,B3,E3,E4,A4,D4,A3,D3,
{256}C,B4,B3,E3,E4,A4,D4,A3,D3,
{256}C,B4,B3,E3,E4,A4,D4,A3,D3,
{256}C,B4,B3,E3,E4,A4,D4,A3,D3,
{256}C,B4,B3,E3,E4,A4,D4,A3,D3,
{256}C,B4,B3,E3,E4,A4,D4,A3,D3,
{256}C,B4,B3,E3,E4,A4,D4,A3,D3,
{256}C,B4,B3,E3,E4,A4,D4,A3,D3,
{256}C,B4,B3,E3,E4,A4,D4,A3,D3,
{256}C,B4,B3,E3,E4,A4,D4,A3,D3,
{256}C,B4,B3,E3,E4,A4,D4,A3,D3,
{256}C,B4,B3,E3,E4,A4,D4,A3,D3,
{256}C,B4,B3,E3,E4,A4,D4,A3,D3,
{256}C,B4,B3,E3,E4,A4,D4,A3,D3,
{256}C,B4,B3,E3,E4,A4,D4,A3,D3,
{256}C,B4,B3,E3,E4,A4,D4,A3,D3,
{256}C,B4,B3,E3,E4,A4,D4,A3,D3,
{256}C,B4,B3,E3,E4,A4,D4,A3,D3,
{256}C,B4,B3,E3,E4,A4,D4,A3,D3,
{256}C,B4,B3,E3,E4,A4,D4,A3,D3,
{256}C,B4,B3,E3,E4,A4,D4,A3,D3,
{256}C,B4,B3,E3,E4,A4,D4,A3,D3,
{256}C,B4,B3,E3,E4,A4,D4,A3,D3,
{256}C,B4,B3,E3,E4,A4,D4,A3,D3,
{256}C,B4,B3,E3,E4,A4,D4,A3,D3,
{256}C,B4,B3,E3,E4,A4,D4,A3,D3,
{256}C,B4,B3,E3,E4,A4,D4,A3,D3,
{256}C,B4,B3,E3,E4,A4,D4,A3,D3,
{256}C,B4,B3,E3,E4,A4,D4,A3,D3,
{256}C,B4,B3,E3,E4,A4,D4,A3,D3,
{256}C,B4,B3,E3,E4,A4,D4,A3,D3,
