&title=ラブドール
&artist=DECO*27
&first=6.53
&des=
&wholebpm=145
&demo_seek=76.1
&demo_len=14.6
&des_5=Ragna
&lv_5=13
&inote_5=(145){8}27,,,,
45,3,45,6,{16}4,5,{8}3h[8:1],7,2,
18,7,18,2,{16}8,1,7,,2,8,{8},
45,6,45,3,{16}5,4,{8}6h[8:1],2,7,
18,2,18,7,{16}1,8,2,,7,1,{8},
34,2,56,7,{16}3,4,{8}2h[8:1],8,1,
78,6,12,3,{16}7,8,6,,2,8,{8},
65,7,34,2,{16}6,5,{8}7h[8:1],1,8,
12,3,78,6,{16}2,1,3,,7,8,{8}6h[2:1],
,5,4,3,2^5[8:1],,1,8-4[8:1],
,1,2,3,4,5,6,7^4[8:1],
,8,1,2,3^8[8:1],4,5,6-1[8:1],
,5,4,3,2-6[8:1],,,7h[2:1],
,8,1,2,3^8[8:1],4,5,6-1[8:1],
,5,4,3,2,1-5[8:1],,8-4[8:1],
,3,2,1,8^3[8:1],7,6,5^8[8:1],
,4,3,2,1-4[8:1]*v7[8:1],,,,
3-8[8:1]/5,3/5h[8:1],,,6-1[8:1]/4,6/4h[8:1],,,
8-3[8:1]/2,8/2h[8:1],,,1-6[8:1]/7,1/7h[8:1],,,
8^5[8:1]/5,8/5h[8:1],,,1^4[8:1]/4,1/4h[8:1],,,
5^8[8:1]/6,5/6h[8:1],,,4^1[8:1]/3,4/3h[8:1],,,
2-6[8:1]/8,2/8h[8:1],,,7-3[8:1]/1,7/1h[8:1],,,
1-5[8:1]/5,1/5h[8:1],,,8-4[8:1]/4,8/4h[8:1],,3z7[16:3],
3,,6,6h[4:1],,8,17,8qq1[32:7],
8,,2,2h[4:1],,8,27,36,
45,3,45,6,45,2,45,7,
18,{16},28,{8},16,4v1[8:1]/5-8[8:1],,,,
2b/7b,5,26,4,{16}7,5,{8}8h[8:1],1,27,
{16}3,4,,6h[8:1],,5,{8}7,3,12,6,78,
1h[4:1],3,8h[4:1],6,2h[4:1],4,7h[8:1],5,
84,73,62,51,4-7[8:1]/8-3[8:1],,4b/8b,,
{16}6,5,6,,3,4,3,,6,5,7,,3,4,2,,
7,5,8,,2,4,1,,8,5,7,,1,4,{8}2,
6-1[8:1],5,4,3,2-5[8:1],1,8,7,
6^3[8:1],,1pp4[32:9],,8,7,6,5,
{16}3,4,3,4,1,7,1,7,5,6,5,6,2,8,2,8,
{4}1bpp6[16:23],8,8,8,
8,8,8,8,
8qq3[16:19],4,4,4,4,
4,4-1[8:1]*-7[8:1],4,
8pp5[16:23],4,4,4,
4,4,4,4,
4pp2[16:7],8,8,8,
{8}18,18,27,36,4-1[8:1]/5v8[8:1],,,,
2bv5[8:1]/7b-5[8:1],,2b/7b,,34,2,56,7qq7[16:3],
,8,1,2,3-5[8:1]/8v5[8:1],,38,,
46,7,35,2pp5[32:9],,1,8,7qq4[32:9],
,8,1,2,3bv8[8:1]*-5[8:1],,3b,,
1bv4[8:1]/7b-4[8:1],,1b/7b,,65,7,34,2V41[16:3],
,1,8,7,6v3[8:1]/8-3[8:1],,68,,
24,3,75,6pp1[32:9],,5,4,3qq8[32:9],
,4,5,6,7b-2[8:1]*v4[8:1],,7b,,
{16}3h[16:3]/5,,,4,,,12,,6h[16:3]/4,,,5,,,78,,
3h[16:3]/4,,,2,,,18,,6h[16:3]/5,,,7,,,18,,
1/2h[16:3],,,4,,,35,,8/7h[16:3],,,5,,,64,,
13,,,87,,,{8}6bv1[8:1]/4bv1[8:1],{2},E
