&title=Black Swan Lake
&artist=葉月ゆら
&first=0.02
&des=NekoMuseigen
&lv_5=14+
&inote_5=(186)
{1},
{8}
4h[8:2],5,6,3h[8:2],4,5,4h[8:1],6,3h[8:2],4,5,4,6-4[8:1],,,,
3h[8:2],5,6,4h[8:2],5,6,3h[8:1],4,2b-4[16:2],,7bV51[16:3],,4b<7[16:2]*>1[16:2],,,,
8h[8:2]/2,3,4,6h[8:2]/3,4,5,7/4,5,6-1[8:1],5,4,3,24,3,64,5,
4/2h[8:2],5,6,1h[8:1]/5,6h[8:1],{16}1,8,7,6,5,4,
7V15[16:3]/3,,,2,,,3,,4w8[8:1],,,,4b,,,,
37,,4,6,3,5,2,4,3,5,
4,6,5,7,4,8,
3<6[16:3],,,6-2[8:1],,,7,,8-5[16:2],,,3,,,1,,
26,,5,3,6,4,7,5,6,4,
5,3,4,2,5,1,
6>3[16:3],,,3-7[8:1],,,2,,1-4[16:2],,,6,,,8,,
12,,7,6,5,4,2,3,4,5,
1,2,3,4,5,6,
73,,2,3,4,5,7,6,5,4,
8,7,6,5,4,3,
2h[16:3]/6,,,3h[16:3],,,4,,7h[16:3],,,6h[16:3],,,5,,
7/3>8[16:2],,,4,,,5,,6<1[16:2],,,5,,,4,,
3>8[8:1]/7<4[8:1],,,,,,,,,,6,2,8b/4b,,,,
{16}
2h[8:2]/5,,,,4,,,3,4,,25,,6,,5,,
7h[8:2]/4,,,,5,,,6,5,,74,,3,,4,,
2h[8:2]/5,,,,1,,,2,1,,83,,7,,8,,
6<1[8:1]/1,,,,6,,2,3,4qq4[8:2],,,,,,,,
6h[8:2],,,,4-7[8:1],,,3,4,,2,,18,,,,
3h[8:2]/4,,,,5-2[8:1],,,6,5,,7,,81,,,,
6/2h[8:4],,,,5,,,,4-8[8:1],,,3,4,,2,,
17,,2,5,4,,7,4,5-1[8:1],2,5,2,5,,,,
{8}
4h[8:2],,5>2[16:3],,5/6h[8:6],,,,5,,4<8[8:2],,4/3h[8:6],,,,
4,,5s1[16:5],,5/6,,7,,85,,4qq7[16:5],,3,,,,
{16}5v8[8:1]/1v4[8:1],,,,5b/1b,,,,2-5[16:3]/6,,,5-1[8:1],,
,6,,7-3[8:1],,,,7/2-5[8:1],,,,2/8-4[8:1],,,,81,,,,
5b/2b,,3,4,5b/2b,,3,4,2b/5b,,3,4,5b/2b,,3,4,
5b/1b-5[8:1],,,,16,,7-3[8:1],,,,4-1[8:1]/7,,,,45,,,,
8,7,6,5,4,5,6,7,8,1,2,3,4,5,
1h[16:3],,,2h[16:3],,,3,,8h[16:3],,,7h[16:3],,,6,,
6b/5b,,3b/8b,,,,3b/4b,,1b/6b,,,,7b/3b,,5b/1bs5[16:4],,,,,,,,,,
{24}6>3[8:1],7,8,1,,,
{16}6b,,,,
{32}1-5[8:1],28,37,46,5,,,,{16}1b/7-3[8:1],,,,7/4,,,5-2[16:2],,,6,,7<4[8:1],,,,
{32}3b,2,1,8>3[8:1],{16},,,,{32}4b,5,6,7h[32:9],{16},,,,
4qq4[16:4],,,,47,,6pp6[16:4],,,,61,,2,,3h[8:2],,,,4<8[16:3],,25,,
1,2,3,4,5,4,3,2,1,8,
4<7[16:2],,,3,4,,2,,1-6[8:1]/8,,,,1-4[8:1]/2,,,,
1-5[8:1]/8,,,,2/1>4[8:1]*<6[8:1],,,,1,,,,5,,
62,37,4v1[8:1]/8v5[8:1],,,,4/8,,,,3/6h[16:6],,,2,,,1,,
7b/8b,,1b/2b,,3b/4b,,7b/5b>1[8:1],,,,1,8,7,6,5,4,
{32}8-4[8:1],1,2,3,{16}4,,
{16}8b/2-6[8:1],,,,2/5,,,4-7[16:2],,,3,,2>5[8:1],,,,
{32}6b,7,8,1<6[8:1],{16},,,,{32}5b,4,3,2h[32:9],{16},,,,
6-3[16:2],,3<6[8:1],,6,,2<7[16:2],,,,2,,6,,5/6h[8:2],,,,5>1[16:3],,74,,
8,7,6,5,4,5,6,7,8,1,
5>2[16:3],,,6,5,,7,,8-5[8:1]*-3[8:1],,,,8-4[8:1],,,,8<5[8:1]*>3[8:1],,,,
8w4[8:1],,,,8,,,,26,,
26,37,4-2[8:1]/8-4[8:1],,,,
48,,,,1-5[8:1]/5-7[8:1],,,,15,,,,2-6[8:1],,,,7-3[8:1]/2,,,,
7/4-1[8:1],,,,48,,7,6,5,4,3,4,5,6,7,8,
16,5,4,3,2,1,8,7,
26,,,,34,,25,,,,37,,,,4/8qq4[8:5],,
3,,3,,3,,3,,3,,3,,3,,3,,
3,4,2,5,1,6,8,7,5,6,4,7,3,8,2,1,
8p4[8:1]/3,,,3,8,,3,,
3p7[8:1],,,6,3,,6,,6<1[16:2],,,2,6,,2,,
2,3,4,5,2,3,
4,5,2>5[8:1],,1,,82,,7,,4/6<1[8:1],,5,,64,,3h[8:2],,
7,6,5,4,3,2,1,8,{32}4,5,6,7,8,1,2,3,
{16}4/8b,,,,
2-5[8:1]/6,,,6,2,,6,,
2/6-1[8:1],,,3,6,,3,,7/3-8[16:2],,,7,3,,7,,7,6,5,4,7,6,5,4,
3/7>2[16:2],,,3,7,,3,,7/3<6[16:2],,,7,3,,7h[8:1],,
1,8,7,6,5,4,{24}73,26,15,8/4pp5[8:2],,,,,,
{16},,,,
1-4[8:1],,,5,,,6,,7-2[8:1]/2,,,3,,,4,,5>2[8:1],,,,5/1<6[8:1],,,,1/5p8[8:1],,,,56,,,,
7-4[8:1],,,4,,,3,,2-5[8:1]/5,,,6,,,7,,8h[8:2]/4h[8:1],,,,4,,84,73,6-3[8:1]/2-7[8:1],,,,62,,,,
1/5h[8:3],,,,2,,2,5,2,,2,,21,,,,
7/4h[8:3],,,,6,,6,4,6,,6,,65,,,,
4b/7b,,6,5,4b/7b,,6,5,7b/4b,,6,5,4b/7b,,6,5,
8,7,6,5,4,,1,2,3,4,5,,8,7,6,5,
3,4,3,2,3,4,3,2,3,4,3,2,3,,34,,,,
3h[8:2],,4,,6h[8:2],,5,,2h[8:2],,4,,7,,
6b/8b,,1b/5b,,,,1b/3b,,4b/8b,,,,2b/6b,,
{8}4b/8bz4[8:4],,,,,,,,,
3/6h[8:5],,,,3,4,5,6,45,,,,3h[8:2]/4,,,,{32}6h[8:2],5,,,{8},,{32}3h[8:2],4,,,{8},,,4-1[8:3]/5-8[8:3],,,,,
,,,2,
3qq8[8:4]/4,,4,,4,,4,,5/6<2[8:3],,5,,5,,5,{16}5,6,
45,,4,,6,,6,,3,,3,4,2,5,1,6,
7b/8b,,6b/5b,,3b/4b,,8>3[8:1]/2-6[8:1],,,,8b/2b,,,,,,
{32}7-3[8:1],86,15,24,{16}3,,
{16}7b/1-5[8:1],,,,1/6,,,8v3[16:2],,,3,,2>5[8:1],,,,
{32}6b,7,8,1<6[8:1],{16},,,,{32}5b,4,3,2h[32:9],{16},,,,
6-2[16:2],,5-1[8:1],,6pp2[8:3],,5,,,,3,,3,,3h[8:2],,,,4>8[16:3],,65,,
8,7,6,5,4,5,6,7,8,1,
2/5qq2[8:3],,,6,5,,7,,8<5[8:1],,,,8>3[8:1],,,,8-6[8:1]*-5[8:1],,,,
8-4[8:1]*-3[8:1],,,,8,,,,61,,
3,4,5<8[8:1]/2V48[8:1],,,,,,,,
4>1[8:1]/7V51[8:1],,,,,,,,6-2[8:1],,,,3-7[8:1]/6,,,,
3/8-5[8:1],,,,84,,3,2,1,8,15,26,37,48,3,2,
1,8,7,6,5,4,3,2,
51,,,,78,,61,,,,73,,,,8/4qq8[8:5],,
7,,7,,7,,7,,7,,7,,7,,7,,
7,8,6,1,5,2,4,3,1,2,8,3,7,4,6,5,
47,,3,8,2,1,3,8,4,7,
5,6,3,4,2,5,
1>4[16:3],,,4<7[8:1],,,7,,8-4[16:2],,,8/3,,,2,,
52,,6,1,7,8,6,1,5,2,
4,3,6,5,7,4,
8<5[16:3],,,5>2[8:1],,,2,,1-5[16:2],,,1/6,,,7,,
48,,3,4,2,6,5,7,1,8,
2,7,3,6,4,5,
36,,7,5,6,2,4,3,8,1,
7,2,6,3,5,4,
27,,4,35,,6,57,,18,,5,46,,3,24,,
3/7<4[16:2],,,8,7,,1,,2>5[16:2],,,1,2,,8,,
7<4[8:1]/3>8[8:1],,,,,,,,,,2,6,4b/8b,,,,
1b/2b,,8b/3b,,4,,7b/8b,,6b/1b,,5,,3b/4bq5[8:8],,1b/5b<4[8:7],,
