&title=Music is the Answer
&artist=C-Show
&first=0.61
&des=KasumCiella
&lv_5=13+
&inote_5=(128)
{1}
,
{16}
4b/5h[1:1],,3,,,3,,,3,,,3,,,3,,4h[1:1],,6,,,6,,,6,,,6,,,6,,7h[1:1],,5,,,5,,,5,,,5,,,5,,2h[8:7],,4,,,4,,,4,,,4,,,4,,
1b/5b-8[4:3],,2,,,2,,,3,,,3,,,4,,4-1[4:3],,8,,,8,,,7,,,7,,,6,,6-3[4:3],,2,,,2,,,1,,,1,,,8,,8-6[8:1],,1,,2-8[8:1],,3,,4-8[8:1],,5,,6b,,,,
1/7h[8:1],,2,,7h[8:1],3,,,4/7h[8:1],,,3,7h[8:1],,2,,1h[8:1]/8,,7,,1h[8:1],6,,,1h[8:1]/5,,,6,1h[8:1],,7,,2/8h[8:1],,3,,7h[8:1],4,,,5/8h[8:1],,,4,7h[8:1],,3,,2h[8:1]/8,,7,,3h[8:1],6,,,2h[8:1]/5,,,6,
{24}
1,8,1,7,,,
{8}
1^3[8:1],1,5-7[8:1],5,2^4[8:1],2,6-8[8:1],6,3^5[8:1],3,7-1[8:1],7,4^6[8:1],4,8-2[8:1],8,5>1[4:1],5,1V35[4:1],1,5p8[4:1],5,6,6,5-7[8:1],7v8[8:1],8-2[8:1],
{16}
3V15[4:1],3v5[16:3],,,,,,,,,
{8}
8b,,3/7V51[4:1],2,1V37[4:1],,4,,1,1,2V48[4:1]/6,7,8V62[4:1],,5,,7,7,6V48[4:1]/2,1,8V26[4:1],,3,,
{16}
1,1,8,2,7,7,3,6,4,5,4,,2/7-3[12:1],,3/6,,
{8}
4/7b,,8-5[8:1],1,2,1,8-5[8:1],2,3,2,8-5[8:1],3,4,3,8-5[8:1],4,5-8[8:1],4,1-4[8:1],2,7,6,1-4[8:1],7,6,
{16}
5h[16:9],,,7,,,1,,,3,,,4/6,,
{8}
2bpp5[8:5]/8b-6[32:3],,8-2[32:3],,8-6[32:3],,8,,1-3[32:3]/7qq4[8:5],1,1-7[32:3],,1-3[32:3],,1,,4qq1[8:5]/6-8[32:3],6,6-4[32:3],,6-8[32:3],,6,,
{16}
2,6,3,7,4,8,5,1,4/8-4[8:1],3/7,2-6[8:1]/6,,8,,2,,
{8}
7,5-7[8:1],6,4-8[8:1]/5,2,3-1[8:1]/4,2,3/5-1[8:1],7,5/6-8[8:1],7,4-2[8:1]/6,3,4/5-1[8:1],6b,4b<7[8:1]/5,,2/4>1[8:1],3,4<7[8:1]/6,5,2/4,3,4/6,
{16}
3,5,8,7,4,6,2,1,3,7,4,6,
{32}
5,4,3,2,1,8,7,6,
{4}
1bqq4[8:7]*pp6[8:7]/5,,,,,
{8}
3-5[8:1],3h[2:1],,,6,5,,
{16}
4,5,3,4,3,2,3h[4:1],,1,,,,,8,1,7h[4:1],,8,,1,8,2,1h[2:1],,3,,4,,5pp4[2:1],,4b>5[8:3],,,,,,,,,,,,3/6,,2,,1/5,,,7,7>2[8:1],,2<7[8:1],,,,,,3,,6,,4/5,,7,5,7,3,7,1,7p3[8:1],,3v6[8:1],,7,,,,1,2,,8,,2/8h[16:3],3,4,5,,4/7,,3/6,,2/5,,
{8}
7/8,6,1/2,3,4z8[8:1]/5-8[8:1],3/6,,,1/7,3/4,2/8,5/6,1q8[8:1]/8p1[8:1],3/6,,,2h[16:1]/7h[16:1],2h[16:1]/6h[16:1],3h[16:1]/6h[16:1],3h[16:1]/5h[16:1],4h[16:1]/5h[16:1],4h[16:1]/6h[16:1],3pp4[8:1]*V14[8:1]/6h[16:1],3h[16:1]/7h[16:1],,,8,
{16}
7V51[16:3],7,,1,1,,2b,,,,
{16}
1s5[8:1]/8z4[8:1],,2/7,,1b/8b,,,,2,2,8>3[8:1],,7p5[4:1],,8,,7,,4,3,2,1,,3/7,,4h[16:1],1<6[8:1],,2q4[4:1],,1,,2,,5,6,7,8,,3/6,,5h[16:1],8>3[8:1],,7h[8:1],,8,,6,6,5,7,4,4,8,3,1qq5[4:1],2,8,2,1,,4,,
3,,
{32}
7^1[8:1],6,5,,2,,,,3^1[8:1]/7,4,5,,,,,,3/7^1[8:1],6,5,,,,,,3^1[8:1]/7,4,5,,,,,,3/6^8[8:1],5,4,,,,,,2^8[8:1]/6,3,4,,,,,,2,,,,5b,,,,7b-5[8:1],,,,1,,,,7/8-4[8:1],1,2,,,,,,1-5[8:1]/8,2,3,,,,,,1/8,7,6,,,,,,2<3[8:7]/7,6,5,,
{16}
3,,3,,,2,,,1,,,8,,,7,,
{8}
6b-2[8:1],6,5-1[8:1],5,4-8[8:1],4,3-7[8:1],3,2-6[8:1],2,1-5[8:1],1,8-4[8:1],8,7,7,5/6,1/2,3/4,7/8,
{24}
1,2,3,7,6,5,2,3,4,8,7,6,
{32}
3,4,5,6,7,8,1,2,
{16}
3h[16:3]/7,,5,5h[16:3],,2,2h[8:1],,8v5[12:1]*z4[12:1],,2/6,,
{1}
,,E
