&title=dica dica
&artist=REMO-CON
&first=0
&des=acid acid
&lv_5=14
&inote_5=(175){4},,,
{1}4b-8[2:3]/5b,,
{8}3,3,2h[8:1]/4h[8:1],,6,6,5h[8:1]/7h[8:1],,7,8,16,5,2,1,38,7,
{32}1b/6b,25,3/4pp8[16:23],,{8},,,3h[16:1],3h[16:1],3h[16:1],3h[16:1],2h[16:1],2h[16:1],2h[16:1],2h[16:1],1h[16:1],1h[16:1],1h[16:1],1h[16:1],
{32}7b,6,5h[16:3],,,,,,8b,1,2qq3[16:19],,{8},5h[16:1],5h[16:1],5h[16:1],5h[16:1],6h[16:1],6h[16:1],6h[16:1],6h[16:1],7h[16:1],7h[16:1],7h[16:1],7h[16:1],
{32}3b/8b,47,5qq1[16:23]/6,,{8},,,6h[16:1],6h[16:1],6h[16:1],6h[16:1],7h[16:1],7h[16:1],7h[16:1],7h[16:1],8h[16:1],8h[16:1],8h[16:1],8h[16:1],
{32}2b-6[8:1],3,4,,1bs5[8:7],8z4[32:27],7,,{4},,,{8},,,45,{20}3,6,4,5,3,{16}6,4,5,3,
{4}6b-1[8:1],3,{16}2,8,2,8,2,8,2,8,1,7,1,7,1,7,1,7,1,7,2,6,1,7,2,6,
1b-5[8:1],,,,7b,,,,6,4,6,4,6,4,6,4,5,3,5,3,5,3,5,3,6,2,5,3,6,2,5,3,
4b,,,2b/8b,,,5b/6b,,7,8,7,8,7,8,7,8,6,7,6,7,6,7,6,7,5h[48:1],,5h[48:1],,8h[48:1],,8h[48:1],,
1b/7b,,3b/5b,,{24}2,,8,,6,,4,3,2,1,8,7,6,,4,,2,,8,,6w2[24:13],,4,,{4}2,,,
{16}48,,5,7,5,,5,7,5,,5,6,5,,5,6,5,,5,7,5,,5,8,5,,5,1,4b,,,,
38,,1,2,1,,1,2,1,,1,3,1,,1,4,{4}1b-6[8:1],3b-8[8:1],5b-2[8:1],7b,
{16}1,,2,4,3v8[8:1],,5,,3,,6,,15,,3,4,2,,7,5,6v1[8:1],,4,,6,,3,,28,2b/8b,,,
16,,2,4,3v8[8:1],,5,,3,,6,,1-6[8:1]/7,,8,,1bs5[2:1]/2h[8:3],,,,,,,,,,2b,,3b,,,,
6-1[8:1],5,7,5,6,,3,,4,,56,,7,,38,,2-6[8:1],1,2,1,2,,7,,58,7,6,5,1h[8:1]/4h[8:1],,,,
3-8[8:1],4,2,4,{8}3,6,5,34,2,15,8b^3[8:1],,4b^7[8:1],,2b-6[8:1],,8bpp5[4:5],,
5,5,5,5,4,4,4,4,3,3,3,3,24,24,24,24,
{16}1,5,1,5,{32}1,2,{16}3,6,5,6,5,6,5,7,5,{32}7,8,1,,{16}4,3,8,7,3,2,7,6,2,1,6,5,1,8,5,4,
{4}3bV51[8:11]/7bs3[8:11],,,,,,,{8},48,{1}5bp2[2:3]/7bpp4[2:3],,
{4}5bpp8[8:11]/3b<8[8:11],,,,,,,{8},1b,1bv6[8:1],,1b^4[8:1]/8h[8:1],,1b-5[8:1]/2h[8:1],,1bw5[8:3]/6h[8:1],,,,,,37,26,37,26,
{16}3,4,3,4,3,,3,4,3,4,3,,3,4,3,,3,4,3,4,3,,3,4,3,,3,,3,4,3h[8:1],,
1,2,1,2,1,,1,2,1,2,1,,1,2,1,2,8,1,8,1,8,,7,8,7,8,7,,1h[8:1]/6h[8:1],,,,
8,8,8,,2,2,2,,6,6,6,,4,4,4,,7,7,7,,3,3,3,,5,5,5,,46,,46,,
3,5,3,5,2,4,2,4,1,5,1,5,8,6,8,6,8,1,2,3,45,6,7,8,15,4,3,2,18,7,6,5,
{8}4/8h[16:1],8h[16:1],8h[16:1],8h[16:1],8-4[8:1],6,8,7,3h[16:1]/8h[16:1],3h[16:1]/8h[16:1],3h[16:1]/8h[16:1],3h[16:1]/8h[16:1],3/8-4[8:1],4-8[8:1]/7,38,2,
{4}1b-6[8:1],1/7-3[8:1],4p8[8:1]/7,4/6^3[8:1],2v5[8:1]/6,12,{16}48,37,26,15,{4}4/8-3[8:1],
5-1[8:1]/8,2^5[8:1]/5,2/7-3[8:1],78,{16}1b,4,2,4,3h[16:1],,6b,5,7,5,{8}8h[16:1],1b-5[8:1]/4b-2[8:1],,
1/4-7[8:1],,14,1,8-4[8:1],2^5[8:1],8V26[24:5],2-6[12:1],
8b,,4,3,{16}7-4[8:1],8,{8}6,1-5[8:1],2,6,7,{16}2-6[8:1],1,{8}3,8v5[8:1],8v3[8:1],8,,4b>5[2:1],,,,,4b,2b,,
{16}6b,5,6,,17,,2b,4,3,4,2,,7b/8^5[8:1],,2,2,8,,1b^4[8:1],,4,4,1,,7b,,5b/6,5/6b,,,7,,
3b,4,3,,28,,7b,5,6,4,5,,3b/6,,2/7-4[8:1],,1,1,7b,,3-8[8:1],,5,5,3b,,6,,{32}1b/7b,26,{16}35,,,
{16}7b,5,6,3,4,2,8b,5,6,3,4,1,7b,8,6,2,4,3,6b,5,8,4,1,2b,2b,7,3,5,1b,6,8b,7,
2b,1,3,5,4,6,8b,4,2,5,3,1,5b,7,1,8,{12}2,3,4,5,6,7,{8}18,27,3-1[12:1]/6-8[12:1],4V62[4:3]/5V37[4:3],
{1},1V73[8:5]/8V26[8:5],{8}4bz8[8:5]/5bs1[8:5],3b/6b,{4},,,{16}2,7,2,7,2,7,2,7,3,6,3,6,3,6,3,6,
2,3,4,5,1,2,3,4,8,1,2,3,5,6,7,8,6,5,4,3,7,6,5,4,8,7,6,5,1,8,7,6,{8}25,3,47,6,15,2,38,7,{24}6,5,6,5,,,7,,,2,,,3,4,3,{8}4,2,8,
{8}3b/7b-3[8:1],,7^2[8:1],2^5[8:1],7,,1-5[8:1],,1^6[8:1],6^3[8:1],1,,8w4[8:1],,8,,
2-6[8:1]/6,,2^7[8:1],7^4[8:1],2,,8-4[8:1],,8^3[8:1],3^6[8:1],8,,1w5[8:1],,1,,
2/8b,3,4b/5,6,1/7b,2,3/8b,{16}6,5b,6b,,4b/8,,3/7b,,2,2b,1b,,4b/6,,5b,1b,5b,,
{8}2b/4,5/7b,{16}8,1,8,1,{24}8,7,6,2,3,4,{12}1,1,1,5,5,5,{16}1,48,37,26,{8}1h[8:3]/5,6,7,8,{48}1b/8b,2b/7b,3b/6b,{16}4b/5b,,,{4},,,,,,,E
