&title=聖少女領域
&artist=ALI PROJECT
&first=0
&des=nanocat.
&lv_5=13+
&inote_5=(137)
{1},
{12}3x/8h[6:1],2x,1x,8h[6:1]/7x,6x,5x
,
{16}8h[4:1],,5,6,7,,3,4,2,,6,5,7h[4:1],,8,1,
{12}2,6,4,
{16}8b,,1,,2-5-3[6:1]/4h[8:1],,,,5,,6,,7-3-6[6:1],,,,8,,1,,
{32}2b,3,4,,7h[8:1],,,,2b,3,4,,6h[8:1],,,,{16}2-6<1[6:1],5,3,4,2,,
5,,6-1-5[6:1],,,,1,,2,,3V15[6:1]/4h[8:1],,,,5,,6,,7-3[8:1],,8,,1-4[8:1],,2,,3pp5[8:1],,2,,1,,
8,,8h[8:1]/6V84[6:1],,,,1,,2,,3-7-4[6:1],,,,7,,6,,
{32}5hb[8:1],,,,1,2,3,,6hb[8:1],,,,1,2,3,,7-3<6[6:1],,2,,8,,1,,7,,,,
{16}2,,34,,6,5,7,,8,,1-6[8:1]/5-2[8:1],,,,,,,,56,,3,4,2,,1,,4<7[8:1]/8>3[8:1],,,,,,,,
2h[8:4]/B7/B8/C,,,,B2/B3/E3,,,E6,,,C,,B4/E5/3h[8:6],,,,,,E7/B6,,B7/B8,,,E2,,,C,,B5/B6/4b,,,,
{8}5-8[6:1],6,2q5[3:1],3,1h[4:1],,,1x<6[6:1],,1,2,3,4p8[6:1],5pp7[6:1],4,5,,
1,2>8[3:1],5,6h[4:1],,,5x-8[6:1],,1-4[6:1],2,3,3pp5[6:1]*p7[6:1],,3,,,
1h[4:1],8pp3[3:1],7,6h[4:1],,,6xV48[3:1],,2,2,3,4h[4:1],,7>7>8>1>2>3<4<5<6<7[1:2],,2>7[16:12],,,,,,,,,,,,,,,,
4v1[6:1],3,8V64[4:1],7,4>8[4:1],,,5xv2[6:1],,5,6,7,8q5[6:1],1p5[6:1],8,1,,
6h[4:1],8pp4[3:1],1,2h[4:1],,,2xv5[6:1],,6>3[6:1],7,8,1-4[6:1]*v6[6:1],,1,,,
4,2qq8[8:1],8>4[6:1],6h[4:1],,,7x<4[6:1],,3-6[6:1],2,1,8-4[8:1],,2/8<8[1:1],,{16}6h[4:1],,,,,,8,7,6>6[1:1],,,,,,,,,,,,,,,,,,,,,,,,
{8}2-4[8:1]/5h[8:1],,6,6,7/2-5[8:1],7,6,6,7/2h[8:3],B7,C,B3,2x-6[8:1]*-4[8:1],,2b,,
7-5[8:1]/4h[8:1],,3,3,2/7-4[8:1],2,3,3,1/7h[8:3],B1,C,B5,7x-3[8:1]*-5[8:1],,7b,,
1h[8:1],7h[8:1],3h[4:1],4-8-2-5[3:1],6h[4:1],,,,
7h[8:1],2h[8:1],5h[4:1],8v5V71[3:1],2h[4:1],,,,
{16}2,7,1,8,2,4,3,5,2,7,1,8,5,7,4,6,2b-4[8:1],,,,12,,8,,7-5[8:1],,,,7,,8,,
{12}2h[1:0],8h[1:0],1h[1:0],7h[1:0],3h[1:0],6h[1:0],
{16}4h[4:1],,5,6,7,,2,1,3,,7,8,6h[8:1],,2,3,{12}4h[1:0]/8h[1:0],2h[1:0]/6h[1:0],4h[1:0]/8h[1:0],
{8}2hb[1:0]/6hb[1:0],1,3-7-4[6:1]/5h[8:1],,4,6,7-4-6[6:1],,8,1,{32}2b,3,4,,6h[8:1],,,,1b,2,3,,7h[8:1],,,,{16}1-5>2[6:1],8,3,6,1,,
{8}8,6V84[6:1],,1,2,3-8-4[6:1]/5h[8:1],,6,7,8qq6[8:1],1,2qq8[8:1]/8,3,4qq2[8:1]/2,5,64,7,
3h[8:1]/8-4-6[6:1],,1,2,3-6-4[6:1],,8,7,{32}6hb[8:1],,,,1,2,3,,5hb[8:1],,,,8,1,2,,
{16}4-8<5[6:1],3,6,1,4,,
2,,34,,6,6,5h[1:0]/7,,8,,1p4[8:1]/5p8[8:1],,,,,,,,
56,,3,3,2/4h[1:0],,1,,8V24[8:1]/4V68[8:1],,,,,,,,
6h[4:1],,1,,1,,,,7h[4:1]/2-6[8:1],,,,,,,,8h[4:1]/5,,5,,5v8[8:1],,,,1h[4:1]/5,,,,E8/E7/B7,,,,2h[4:1]/6v4[8:1],,6,,6,,,,3h[4:1]/E1/B1/E2,,,,8pp5[4:1],,,,4h[4:1]/8,,,,,,,,5h[4:1]/2v4[8:1],,2,,2,,,,
6qq8[4:1],,,,8pp6[4:1],,1x,2x,3b,
