&title=88☆彡
&artist=ワンダーランズ×ショウタイム
&first=0.08999999
&lv_5=14
&des_5=88Ans
&inote_5=
(175){8},6/4,,3/5,2,2/5,8,2/8-6>4-7[8:3],
,,,3h[4:1],,,3,7/2,
{4}1pp3<5[2:1],5h[2:1],{8},,,6h[8:3],
{16},,E3,B3,{8}B4,6/2h[8:3],,6,6,5/2,
4/3,3,{4}3/7h[1:1],{8},B8/B1/E1,,E3/B2/B3,
{16},,B3,B4,{4}B5h[8:13],{8},1,8,7,
,1,8,7h[8:3],,,,,6/4,
5,2/4,3,{2}6>3[8:1]/3-6[8:1],
{8}6x/3x,5,4,3,{4}2/6,{8}2/6,6h[4:1]/2pp1[8:3],
,,,6,6h[4:1],4,3,2/7,
{4}1/8qq5[2:1],4h[2:1],{8},,,3h[8:3],
{16},,B6,B5,{8}B4,3/7h[8:3],,3,3,4/7,
5/6,6,{4}6/2h[1:1],{8},B1/B8/E1,,B7/B6,
{16},,B6,B5,{4}B4h[8:13],{8},8,1,2,
,8,1,2h[8:3],,,,,7/3,
5,6/4,3,{2}2q6[8:1]/6-2[8:1],
{8}7/3,3/7,7/3-8-5-2-7-3[8:7],7/3,{2}3/7h[8:7],
{8},,,,,5,6,7,
7/3,3/7,3/7-4-1-6-2-7b[8:7],3/7,{2}7/3h[2:1],
{8},,,A7f/D7/D8/3xw7b[4:1],,,,,6/4,
7,4/6,3,{4}6h[8:1]/4h[8:1],{8}3/5,2,
5/3,6,{4}7h[8:1]/1h[8:1],{8}1/6,5,3bpp6b[8:5]/7bpp2[8:5],7b/3b,
,,,,,,,,6/2,
7/3,8/1,D8f/A7f/E8f/B7f/E7f/D7f/B8f/B6/3b-8b[8:1]*-6[8:1],,,,7x,
{4}7-4[8:1],{8}7,8>3[8:1],,8,{4}7<4[8:1],
{8}7,1q5[8:1],8,1,6,6/4,5/3,2/4,
{4}1-6[8:1],{8}1,2v5[8:1],,2,7<4[8:1],1,
7,3p7[8:1],,3,{2}5-8[8:1]*-1[8:1],
{4}6-1[8:1],{8}6,5p1[8:1],6,5,{4}7qq5[8:1],
{8}7,8>3[8:1],6,8,5,4/6,5/7,6/8,
{4}1-6[8:1],{8}1,2>5[8:1],7,2,{4}6V82[4:1],
{8}4,3-8[8:1],,7,{2}7-4[8:1]*-3[8:1],
{8}7-4[8:1],1,7,2-5[8:1],8,2,6<1[8:1],4,
6,3-8[8:1],3,3/5,6,7,8/1,2,
2>5[8:1],6,7,8<5[8:1],4,3,2b,1,
8,7b/3b,{16}4,6,{8}4,{2}7b-2b[8:1]/3b-6b[8:1],
{8}6x-1[8:1],3,6,3-8[8:1],5,3,7<4[8:1],1,
7,{16}1-5[8:1],2,{8}3,1/8,7,7/4,6/2,2/6,
3b/7b,{16}4,6,{8}4,6b/2b,{16}1,7,{8}1,{4}7b<2b[4:1]/2b>7b[4:1],
{8},,,5/3,{16}4,5,3,6,5,7,3,4,
1,2,3,4,B8,B7,B6,B5,8,1,2,3,B7,B6,B5,B4,
1,8,2,7,3,6,4,5,3,5,4,6,{24}3,5,3,5,{48},{16}2,
7,6,5,4,8,1,2,3,4/8,7,6,5,{24}1,2,3,4/8,7,6,
{16}5,3,6,4,5,2,7,1,8,7,6,5,4/8,3,2,1,
8x/4h[16:1],8x,,5/6h[16:1],{8}5,{16}4/3h[16:1],4,,1/8,{8}8/1,7/2,7/2,
{16}6,4,8,3,5,1,6,4,{12}8h,8h,8h,3h,3h,3h,
{48}8h/2h,7/3,6/4,5pp8[16:11],{4},,{16},,{24},{16}4,3,{8}2bh[8:3],
,,{4}8,5/3,4/6,
4/6h[8:5],{8}4,B3/B4/E4,,4,{4}3h[4:3],
{8}5,B5/B6/E6,,5,5,4/5,3/6,2/7,
{4}2/7b-1-5-3b[8:5],{8},,,,1,1h[2:1],
,,,7h[2:1],,2,2,2,
2/7,{16}1,8,{8}1,7/2,{16}8,1,{8}8,{16}1,8,2,7,
{8}6/3,{16}4,5,{8}3,6/3,{16}6,5,{8}7,{16}4,5,4,5,
{8}6/3,6/3,7/2,2/7,8/1,1/8,{32}1,2,3,4,5,6,7,8,
1,2,3,4,5,6,7,8,1,2,3,4,5,6,7,8,1,2,3,4,5,6,7,8,1,2,3,4,{8}5b/Ch[8:5],
{24},,,,,,,,,B1/B5,B2`B6,B3`B7,{2}B4`B8,
{4}6h[8:11],{8}5,5,,7,{4}7,
{8}5,5,,7,7,8,1,2,
{4}7/3,{8}6,6/4,,3,{4}3/5,
{8}6,6/4,,7/2,{2}2/7,
{4}3h[8:11],{8}4,4,,2,{4}2,
{8}4,4,,2,2,1,8,7,
{4}2/6,{8}3,3/5,,6,{4}6/4,
{8}3,3/5,,2/7,{4}7<6-4b[8:1]/2>3-5b[8:1],A7/A2,
{24}1/8-5[8:1],2,3,4,,,{8}8,1,1>4[8:1],8,{24}8/1-5[8:1],7,6,5,,,{8}1,
7-4[8:1],1,7,1-3[8:1],8-6[8:1],1-5[8:1],8,
1b,6,7,{32}8,7,6,5,{8}4h[8:1],2,2/5,1,
8,7/3,{16}4,6,{8}4,{2}3-7[8:1]/7-4[8:1],
{24}8/1-4[8:1],7,6,5,,,{8}1,8,8<5[8:1],1,{24}1/8-4[8:1],2,3,4,,,{8}8,
2-5[8:1],8,2,8-6[8:1],1-3[8:1],8-4[8:1],1,
8b,3,2,{32}1,2,3,4,{8}5h[8:1],7,7/4,8,
1,2/6,{16}5,3,{8}5,{2}6-2[8:1]/2-5[8:1],
{8}3-8-2-5[8:3],6,3,7,6,6,6v1-7-4[8:3],3,
6,2,,3,2-6[8:1],6-2[8:1],2,7,
8-4[8:1],4-6[8:1],8,2,2-5[8:1],1,2/8-4[8:1],7,
8/1,2h[8:5],{32}4x,5,6,7,8,1,,3,{2}4b-8b[8:1],
{8}6-1-7-4[8:3],3,6,2,3,3,3v8-2-5[8:3],6,
3,7,,6,7-3[8:1],3-7[8:1],7,2,
1b,{16}2,7,{8}2,8/1,7/2,3/6,{4}5w1b[4:1]/4w8b[4:1],
{8},,,8/2,7/3,2/6,3pp6>2b[4:7]/7pp2<6[4:7],7/3,
,,,,,,,,,,,,,,,,5/3,
3/5,6/4,6/4h[2:1],,7,6,5,
{16},,2/8,3/7,{8}4/6,4,6h[8:3],4,3,2,
{2}1h[4:1]/8h[4:1],{8}7/2,7/2,6/3,3/6,
{4}2/7h[2:1],1,1h[4:1],7,
{8}7h[2:1],,,1,{2}1h[2:1],
{8}7,2/8,6,3/7,B7h[4:1]/B6h[16:5],Ch[4:1]/B2h[16:5]/B3h[8:3],
E
