&title=IMAGE -MATERIAL-
&artist=Tatsh
&first=-0.02
&des=HL - osu 7mins
&lv_5=14+
&inote_5=(260.001){1},
{8},,,,{128},,,,,,
{2},,1>1[40:818],,,,,,,,,,,,,,,,,,,,,,,,,,,,,,,,,,,,,,,,,,
{96},,,,,,,,,,,,,,,,,,,,,,,,,,,,,,,,,,,,,,,,,,,,
(260)
{2}
4h[4:2],,6h[4:2],,3,4,5,6,
{4}
7/1h[4:4],,,,,,2,3,4h[4:4],,,,,8,7,6,
5h[4:2],,,,2h[4:2],,,,8,,6,,4,,2,,
1h[4:8],,,,,,,,,,7,,7<4[130#4:1],,,,,,
1,2,3,4,5,6,8,7,6,5h[8:1],1,2,3,4,
4h[8:7],,,,6h[8:7],,,,3h[8:7],,,,5,,4<6-3z7-2<7[130#8:24]/5>3-6s2-7>2[130#8:24],,
{1}45,,,,,,,,,,,,,,
{8}
2h[4:1],,,1,8,8,
2h[4:1],,,1,7,7,
2h[4:1],,,1,3h[4:1],,,4,5h[4:1],,,6,
5h[8:1],,4h[8:1],,5h[8:1],,4h[8:1],,
5,6,7,8,1,2,3,{16}4,5,
{8}
4h[8:1],,4h[8:1],,4h[8:1],,
{16}6,5,6,5,
{8}
6h[4:1],,,3h[4:1]/4h[4:1],,,
1h[4:1]/8h[4:1],,,,2,,8,7,6,5,
{16}3,4,3,4,3h[8:1],,,,5,4,5,4,5h[8:1],,,,
3,4,3,4,3h[8:1],,,,5,4,5,4,5h[8:1],,,,
3,4,3,4,3h[8:1],,,,6,5,6,5,6h[8:1],,,,
2-8v6-4[8:4],,,,,,,,,,,,,,,,
{8}
2h[4:1],,,2h[4:1],,,2h[8:1],,
1,8,7,6,2,3,4,5,6,6,3,3,7,7,2,2,
{16}8,1,8,1,8,1,8,1,
{8}8h[8:1],,1h[8:1],,
{8}
2>5[8:1],,2,1<6[8:1],,1,2>5[8:1],,2,1,,,
4,5,6,7,
8>3[8:1],,8,7<4[8:1],,7,8>3[8:1],,8,7<4[8:1],,7,8,1,2,
,2-5[8:1],,2,1<6[8:1],,1,2>5[8:1],,2,1-6[8:1],,,
2h[8:1],,3h[8:1],,
4/5<7[8:1],,5,4>2[8:1],,4,5pp4[2:1],,5,,,,
1,2,3,4,
3>8[8:1],,3,4<7[8:1],,4,3>8[8:1],,3,4,,,
1,8,7,6,
5>2[8:1],,5,6<1[8:1],,6,5>2[8:1],,5,6<1[8:1],,6,5,4,3,
,3-8[8:1],,3,4<7[8:1],,4,3>8[8:1],,3,4-7[8:1],,,
3h[8:1],,2h[8:1],,
1/8<6[8:1],,8,1>3[8:1],,1,8qq1[2:1],,8,,,,
3h[4:1],,6h[4:1],,5,,3h[2:1]/6h[2:1],,,,,,
4h[16:1],5h[16:1],4h[16:1],6h[16:1],4h[16:1],7h[16:1],3h[16:1],8h[16:1],
{16}2,1,2,1,2,1,2,1,3,8,3,8,3<1-5<4[8:8],8,3,8,
3,,,,,,,,,,,,,,,,,,,,
{8}6h[4:1],,5h[4:1],,4,,
34,
{16}
,,5,,45,,,,2,,24,,,,4h[16:4]/5h[16:4],
,,,,,,,
{8}2,5,4,7,3h[4:1],,5,3h[4:1],,6,3h[4:1],,
7,7,1h[4:1],,4h[4:1],,6,,
4>1[8:1],,4,5<8[8:1],,5,4-1[8:1],,
4,,8h[4:1],,7h[4:1],,6h[4:1],,
5h[2:1],,,,4,3,2,1,
4b,,8,8,7,6,5h[4:1],,
4,5h[4:1],,3,2h[4:1],,6,7h[4:1],,1,2h[4:1],,
{16}8,7,6,5,8,7,6,5,
{8}4h[4:1],,6,7h[4:1],,2,1h[4:1],,
5,6,7,8,1,2,3,4h[16:1],7h[16:1],4h[16:1],7h[16:1],
{16}5,6,5,6,5,6,4,6,4,6,
4,5,4,5,4,5,4,5,4,5,4,5,4,5,4,5,
{8}4h[4:1],,,7,7h[4:1],,,1,
1pp5qq1<4[8:12],,,,,,,,,,,,,,,,
,,3,4,5/2h[4:1],,,6,
3/7h[4:1],,,,3h[4:1]/4[4:1],,,,
2qq5V36[8:12],,,,,,,,,,,,,,,
,,,4h[4:1],,7h[4:1],,1,6,
3/7h[4:1],,,,5h[4:1]/2[4:1],,,,
3V15-7q2[8:12],,,,,,,,,,,,,,,,
,,2h[16:2]/6h[16:2],,3h[16:2]/7h[16:2],,4/8,,
8>1-6v5-2>3[8:10],,,,,,,,,,,,,,,,
2<8-4<6[8:6],,,,,,,,,,7,,7,,7,,
{16}6,5,4,3,2,1,8,7,
2,3,4,5,6,7,8,1,
2h[32:1],,2h[32:1],,5h[32:1],,5h[32:1],,
3,4,3,4,3,4,3,4,
{8}
3>8[8:1],,3,4<7[8:1],,4,3>8[8:1],,3,4,,,
1,8,7,6,
5>2[8:1],,5,6<1[8:1],,6,5>2[8:1],,5,6<1[8:1],,6,5,4,3,
,3-8[8:1],,3,4<7[8:1],,4,3>8[8:1],,3,4-7[8:1],,,
3,3,2,2,
1h[16:2]/8h[16:2],,2h[16:2]/7h[16:2],,36,,,,
2h[16:2]/7h[16:2],,36,,4,5,3,6,
2>5[8:1],,2,1<6[8:1],,1,2>5[8:1],,2,1,,,
4,5,6,7,
8>3[8:1],,8,7<4[8:1],,7,8>3[8:1],,8,7<4[8:1],,7,8,1,2,
,2-5[8:1],,2,1<6[8:1],,1,2>5[8:1],,2,1-6[8:1],,,
2,2,3,3,
{8}4/5,36,27,18,1h[4:1]/8h[4:1],,,
{16},2,3,4,5,6,78,1,2,3,4,5,6,7,8h[4:1],,,,
{8}
1,1,1,,5,5,5,,3,3,3,,7,7,7,,
2,2,2,2,6,6,6,6,3,3,5,5,3,3,5,5,
4h[8:1],,4,,8h[8:1],,8,,2h[8:1],,2,,6h[8:1],,6,,
7,7,7,7,3,3,3,3,6,6,4,4,6,6,4,4,
5h[8:1],,4h[8:1],,3h[8:1],,2h[8:1],,
5h[8:1],,6h[8:1],,7h[8:1],,8h[8:1],,
1h[8:1],,2h[8:1],,3h[8:1],,4h[8:1],,
1h[8:1],,8h[8:1],,7h[8:1],,6h[8:1],,
4,4,4,4,4,4,4,4,6,6,6,6,6,6,6,6,
2,2,2,2,2,2,2,2,
8h[32:1],1h[32:1],8h[32:1],1h[32:1],
{16}7,2,7,2,7,2,7,2,
{1}7b,1b,{4}4b,,,{16},,3,2,
{8}1h[8:1],,7h[8:1],,2h[8:1],,8h[8:1],,
{1}1b,4b,{4}7b,,,{16},,7,6,
{8}5h[8:1],,3h[8:1],,6h[8:1],,4h[8:1],,
{1}5b,8b,{4}3b,,,{16},,4,5,
{8}6h[8:1],,1h[8:1],,8h[8:1],,3h[8:1],,
7h[8:1],,6h[8:1],,5h[8:1],,4h[8:1],,
7h[8:1],,8h[8:1],,1h[8:1],,2h[8:1],,
5h[8:1]/4h[8:1],,6h[8:1],,7h[8:1],,8h[8:1],,
3h[8:1]/4h[8:1],,5h[8:1],,6h[8:1],,7h[8:1],,
6,6,1,1,8,8,3,3,5,5,3,{16}3,4,3,4,3,4,3<6-2<7[8:8],5,3,5,
3,,,,,,,,,,,,,,,,,,,,
{8}6h[4:1],,7h[4:1],,8,,
21,
{16}
,,8,,18,,,,3,,31,,,,1h[16:4]/8h[16:4],
,,,,,,,
{8}3,8,1,6,2h[4:1],,8,2h[4:1],,7,2h[4:1],,
6,6,4h[4:1],,1h[4:1],,7,,
5>2[8:1],,5,6<1[8:1],,6,4-1[8:1],,
4,,5h[4:1],,6h[4:1],,7h[4:1],,
8h[2:1],,,,1,2,3,4,
5,,5,6,7,8,1,2,3h[4:1],,
1,8h[4:1],,2,3h[4:1],,7,6h[4:1],,4,3h[4:1],,,,
{8}2h[4:1],,,4,3h[4:1],,,4,5,5,4,4,3,3,2,2,
1-5[8:1],,1,8-3[8:1],,8,4>1[8:1],,
{24}54,6,7,8,,,
{8},,
1h[8:1],7h[8:1],5h[8:1],3h[8:1],
{8}2h[4:1],,,7,7h[4:1],,,1,
1qq5pp1<4[8:12],,,,,,,,,,,,,,,,
,,3,4,5/2h[4:1],,,6,
3/7h[4:1],,,,3h[4:1]/4[4:1],,,,
2pp5V31[8:12],,,,,,,,,,,,,,,
,,,4h[4:1],,7h[4:1],,1,6,
3/7h[4:1],,,,5h[4:1]/2[4:1],,,,
3V51-7qq4[8:12],,,,,,,,,,,,,,,,
,,2h[16:2]/6h[16:2],,3h[16:2]/7h[16:2],,4/8,,
8<6v5>3[8:6],,,,,,,,,,,,,,,,
2<8-4<6[8:6],,,,,,,,,,7,,7,,7,,
{16}3,6,3,6,3,6,3,6,4,5,4,5,4,5,4,5,
3,6,4,5,3,6,4,5,3,6,4,5,3,6,4,5,
{8}3b-1[8:1],,8,7-5[8:1],,4,3-1[8:1],,
4-8[8:1],,,,2-5[8:1],,1-6[8:1],,,,
5,,4,4,7,7,3,3,8,8,2,2,1,1,
8-6[8:1],,4,3-1[8:1],,8,7-5[8:1],,
8-4[8:1],,,,6-1[8:1],,5-2[8:1],,
,,8,8,17,2,3,4,58,6,7,8,61,7,8,1,
2>5[8:1],,6<1[8:1],,,,4>1[8:1],,8<5[8:1],,,,4,3,2,1,
8,8,6,6,4,4,2,2,7,7,5,5,3,3,1,1,
2-5[8:1],1,2,,7-4[8:1],8,7,,
{16}2,3,4,5,6,7,8,1,2,3,4,5,6,7,8,1,
{8}2b-6[8:1],,,,7b-3[8:1],,,,5b-1[8:1],,,,8b-4[8:1],,,,
2h[2:1],,,,8,7,6h[2:1],,,,4,,56,5,78,7,
1-4[8:1],,1,8,7<4[8:1],,7,8,
1>4[8:1],,1,7,5-8[8:1],,5,4,
3<2[1:1],,,,,,,,2-4-1-5-8-6[8:10],,,,,,,,,,,,,,,,
1h[16:2]/3h[16:2],,2h[16:2]/8h[16:2],,1h[16:2]/7h[16:2],,86,,
4>5[8:6]/5,,,,,,5-2-7-4-1[8:6],,,,,,,,,,
7,7,8,8,6,6,1,1,5,4,5,3,4,3,6,5,
6h[4:1],,4,3,2h[4:1],,8,7,
6h[4:1],,3,2,1h[4:1],,7,7,
8b,4b,1b,5b,8b,4b,1b,5b,
1b,5b,{16}1,6,1,6,2,5,2,5,3,4,3,4,
{4}3<6[8:6],,,6<1[8:6],,,1>4[8:6],,,
4<7[8:6],,,7,8h[4:1],6h[4:1],4,
6>3[8:6],,,3>8[8:6],,,8<5[8:6],,,
5>2[8:6],,,2,1h[4:1],3h[4:1],5,
3<6[8:6],,,6<1[8:6],,,1>4[8:6],,,
4<7[8:6],,,7,8h[4:1],6h[4:1],4,
3,4,5,6,45,3,2,45,6,7,
18,2,3,12,8,7,
4/6h[2:1],4,3,2h[2:1],7,8,12,12,
5/3h[2:1],5,6,7h[2:1],2,1<6[2:1],,6>3[2:1],,,7h[1:2],,
,4,,4,3,2,1,8,7,65,34,
3h[4:3]/4h[4:3],,,,
3h[4:2]/5h[4:2],,,
5h[4:3]/6h[4:3],,,,
4h[4:3]/5h[4:3],,,,
{8},
3-6[1:2],,,,,,,,,,,
1-4[1:2],,,,,,,,,,,,,,,,,,,,,,
5-8[8:6],,,,,,,,,,
7p4[4:21],,,,,,,,,,
2qq5[1:4],,,,,,,,,,,,,,,,,,,,,,,,,,,,,,,,,,,,,,
{16}
2,3,4,,{8}6,6,5,5,64,3,
25,1,7,7,5,1,1,4,
{16}
7,6,5,,{8}3,3,4,4,35,6,
74,8,2,2,4,8,8,5,
{16}
3,2,1,,{8}7,7,8,8,71,2,
38,4,6,6,8,4,4,1,
{16}
6,7,8,,{8}2,2,1,1,28,7,
61,5,3,3,1,5,5,8,
{16}
3,2,1,8,5,6,7,8,
4,3,2,1,6,7,8,1,
4,3,2,1,8,7,6,5,
1,2,3,4,5h[8:1],,,,
4,5,4,5,3,6,3,6,2,7,2,7,1,8,1,8,
1,2,8,7,2,3,7,6,2,3,7,6,3,4,6,5,
4h[8:1],,,,4h[8:1],,,,5h[8:1],,,,5h[8:1],,,,
2,,2,,6,,6,,3,,2,,8,,7,,
6,5,6,5,6,4,6,4,5,4,5,4,
{24}5,6,7,8,,,{8}2,2,{24}2,3,4,5,,,{8}7,7,
{16}1,8,1,8,
{8}
2>5[8:1]/7,,2,6<1[8:1],,6,2>5[8:1],,2,1,,,
5,6,4,7,
5>2[8:1],,5,6<1[8:1],,6,5>2[8:1],,5,6<1[8:1],,6,5,4h[8:1],,
,3-8[8:1],,3,7-4[8:1],,7,3>8[8:1],,3,7<4[8:1],,7,
2h[8:1],,3h[8:1],,
4/5<7[8:1],,5,4>2[8:1],,4,5<4[2:1],,5,,,,
1h[8:1],,2h[8:1],,
3p7[8:1],,3,4q8[8:1],,4,3>8[8:1],,3,4,,,
8,7,3,4,
6q2[8:1],,6,5p1[8:1],,5,6<1[8:1],,6,5,,
,12,38,47,
,3-8[8:1],,3,4<7[8:1],,4,3>8[8:1],,3,4-7[8:1],,,
3,3,2,2,
1/8-4[8:1],,8,1-5[8:1],,1,8<1[2:1],,8,,,,
4h[4:1],,6h[4:1],,5,,3h[2:1]/6h[2:1],,,,,
{16}2,7,
1,8,1,8,1,8,1,8,2,7,2,7,2,7,2,7,
1,8,2,7,1,8,2,7,1,8,2,7,1>5V71-3-5[1:1],8,2,7,
{8}
1b,
,,,,,,,,,7h[4:1],,1h[4:1],,8,,
78,
{16}
,,1,,82,,,,6,,57,,,,8h[16:4]/1h[16:4],
,,,,,,,
{8}6,1,8,3,7h[4:1],,1,7h[4:1],,2,7h[4:1],,
3,3,5h[4:1],,3h[4:1],,1,,
8v3[8:1],,8,1v6[8:1],,1,8-4[8:1],,
8,,3h[4:1],,2h[4:1],,1h[4:1],,
7h[2:1],,,,2,6,3,5,
4b,,4,4,3,2,1h[4:1]/7,,
8,1h[4:1]/3,,2,1h[4:1]/7,,8,7h[4:1],,
5,6h[4:1],,4,3,7,8,
1-5[8:1],2,1,,3-8[8:1],4,3,,
6-2[8:1],5,6,,4-1[8:1],5,4,,
8,8,
{16}
1,2,3,4,5,6,1,2,3,4,5,6,
1,8,7,6,5,4,3,2,1/5,6,7,8,1,2,3,4,
{8}5bv2>7[2:1],,,,,,1>5s1[8:6],,,,,,,,
8,7,6h[2:1],,
3,,4,4,7,7,3,3,8,8,2,2,1,1,
8-4[8:1],,8,3-1[8:1],,3,7-5[8:1],,
8-4[8:1],,,,6-1[8:1],,5-2[8:1],,
,,8,8,17,2,3,47,6,5,41,2,3,47,8,1,
2>5[8:1],,2,6<1[8:1],,6,4>1[8:1],,8<5[8:1],,,,4,3,2,1,
8,8,4,4,1,1,5,5,7,7,4,4,6,6,3,3,
2q6[8:1],1,2,,7p3[8:1],8,7,,
{16}1,2,3,4,7,6,5,4,2,3,4,5,8,7,6,5,
{8}2bv4[8:1],,2b,6b,6bv8[8:1],,6b,2b,2b-6[8:1],,2b,8b,8b-4[8:1],,8b,,
3h[2:1],,,,5,6,7h[2:1],,,,1,,87,87,65,65,
4-1[8:1],,48,7,6<1[8:1],,62,3,
4>1[8:1],,46,7,8-5[8:1],,84,3,
2<3[8:6],,,,,,3-5-1-7-4-8[8:10],,,,,,,,,,,,,,
4h[16:2]/2h[16:2],,35,3h[16:2]/5h[16:2],,46,4h[16:2]/6h[16:2],,57,,
1pp8<1[8:8]/8,,18,,,,,,1-3-6-1-4[8:6],,,,,,,,,,
6,5,6,4,5,3,4,3,8,1,8,2,1,2,7,8,
7h[4:1],,1,2,3h[4:1],,5,6,
{16}8,7,8,7,8,7,8,7,1,2,3,45,6,7,8,,
{8}4bv2[8:1],,4b,6b,6bv8[8:1],,
6b,2b,2b-6[8:1],,2b,8b,8b-4[8:1],,8b,,
2h[2:1],,,,8,7,6h[2:1],,,,4,,56,4,56,7,
8-5[8:1],,8,1,2>5[8:1],,2,1,
8<5[8:1],,8,2,4-1[8:1],,4,6,
8>7[1:1],,,,,,,,7-5-8-4-1-3[8:10],,,,,,,,,,,,,,,,
8h[16:2]/6h[16:2],,7h[16:2]/1h[16:2],,8h[16:2]/2h[16:2],,13,,
5<4[8:6]/4,,,,,,4-7>4[8:6],,,,,,,,,,
7,7,5,5,6,6,1,1,4,4,2,4,3,5,4,6,
6h[4:1],,4,3,2h[4:1],,8,7,
6h[4:1],,3,2,1h[4:1],,7,7,
8b,4b,1b,5b,8b,4b,1b,5b,
2b,6b,2b,5b,2b,6b,2b,5b,
{8}
3h[8:6],8,8,8,8,8,8,,
{16}
2,1,2,1,2,8,2,8,1,8,1,8,1,8,1,8,
1,2,3,4,5,6,7,8,1,2,3,4,5,6,7,8,
1,2,3,4,5,6,7,8,1,2,3,4,5,6,7,8,
5,6,7,8,1,2,3,4,5,6,7,8,1,2,3,4,
5,6,7,8,1,2,3,4,5,6,7,8,1,2,3,4,
1,2,3,4,5,6,7,8,1,2,3,4,5,6,7,8,
1,2,3,4,5,6,7,8,1,2,3,4,5,6,7,8,
{8}
2,2,4,4,2,2,4,4,3,3,3,3,6,6,6,6,
4,5,3,4,3,5,4,6,5,6,8,7,1,8,2,1,
2,2,2,2,4,4,4,4,2,5,3,4,2,5,3,4,
{16}2,1,8,7,5,,5,,5,,5,,7,8,1,2,
4,,,,
{24}7h[6:1],,1,2,3,4,{8}5,
{24}2h[6:1],,8,7,6,5,{8}4,
{8}
2,2,6,6,3,3,5,5,{16}3,4,{8}3,3,5,4,5,54,,
{16}2,1,2,1,2,,,,3,4,3,4,3,,,,
{8}8-6[8:1],2,8-4[8:1],1,8,2,2,,
{16}7,8,7,8,7,,,,6,5,6,5,6,,,,
{8}1-3[8:1],7,1-5[8:1],8,1,7,7,,
{16}3,4,3,4,2,,,,2,1,2,1,3,,,,
{8}8-5[8:1],2,8-4[8:1],1,8,2,2,,
{16}6,5,6,5,7,,,,7,8,7,8,6,,,,
{8}1-4[8:1],7,1-5[8:1],8,1,7,7,,
{4}3-1-4-8[8:5]/5-7-4-8[8:5],,,,,
8h[2:1],,4,
{8}3,3,3,,7,7,7,,
2,2,6,6,2,6,2,6,
{16}2,6,2,6,2,6,2,6,3,7,3,7,3,7,3,7,
4,8,4,8,3,7,3,7,2,6,2,6,1-5[8:1],5,1,5,1bw5[8:1],
