&title=Cyberpunk Dead Boy/サイバーパンクデッドボーイ
&artist=マイキP
&first=1.04
&des=Violency
&lv_5=14
&inote_4=
&inote_5=(157)
{16}4,6,4,6,4h[8:1],,6h[8:1],,3h[8:1],,5h[8:1],,3,5,3,,
{16}6h[16:1]/4h[16:1],,6/4,,3h[16:1]/5h[16:1],,3/5,,4-8[8:1],6,2,5,4,,,,
{16}2h[8:1],,1,2,1h[8:1],,2h[8:1],,7h[8:1],,8h[8:1],,7,8,7,,
{16},,6/3,,7-4[8:1]/2-5[8:1],,8/1,,2>8[16:3]/7<1[16:3],,,,2/7,,,,
{32}A1/A8,B1/B8,Cf,B5/B4,A5/A4,,,,{16}6,,6,,1,1h[8:1],,4,3,5,4,6,
{16}1,1h[8:1],,4,3,5,4,6,1,1h[8:1],,4,1>4[16:1]*<6[16:1],5,2,,
{16}1b,,,,6,,1,,7/8,7/8h[16:1],,5,2,4,3,,
{16}1/2,1h[16:1]/2,,4,7,5,6,,{24}7,6,5,3,2,1,{32}7,6,5,4,3,2,1,8,
{64}7,E8/E7/B7f,B8,B6,B1,B5,E2,E5,A2,A4,,,,,,,3x,,,,,,,,3x,,,,,,,,{16}8,8h[8:1],,5,6,4,5,3,
{16}8,8h[8:1],,5,6,4,5,3,8,8h[8:1],,5,8<5[16:1]*>3[16:1],4,7,,
{16}8b,,,,6,,1,,7/8,7/8h[16:1],,5,2,4,3,,
{16}1/2,1h[16:1]/2,,4,7,5,6,,
{16}E7/B6/B7,,E3/B3/B2,,1/8,2/7,3h[16:2]/6h[16:10],,
{16},,,,5,,,,3h[8:4],,4,,4,,,,
{16}6,,5,3,,4,6,,1-5[8:1]/6-8[8:1],,,,,,,,
{16}6,,5,3,,4,7h[16:4],,4h[16:2],,,,3,,7,7,
{16}3,,4,6,,5,2-7-2b[8:2],,6h[8:2],,A2,,A7,,,,
{16}4>1[8:1],,,,7,,,,5<8[8:1],,2,,2,,,,
{16}3,,4,6,,5,3,,8-4[8:1]/3-1[8:1],,,,,,,,
{16}2,,1,7,,8,3h[16:4],,8h[16:2],,,,7,,3,3,
{16}7,,8,2,,1,6-3-6b[8:2],,2h[8:2],,A6,,A3,,,,
{16}1-3[16:1],,8,1,,,7-5[16:1],,8z4[8:1],7,,,{32}B8,C,B4,,,,,,
{16}2/8,3/7,4/6,,2-6[8:1]/8-4[8:1],,6/4,,2/8,,,,6x,7x,8x,1x,
{16}2-7[12:1],,2,6-3[12:1],,6,4-1[12:1],,4,8-5[12:1],,8,
{16}3-8[12:1],,3,7-4[12:1],,7,,,3,2,1,8,7-1-5-3[8:2],,1,,5,,3,,
{16}2qq5[16:5],,5,5,,6,6,,{32}7x,8x,1xh[32:4],,,,,,2,,3,,4,,5,,
{16}6pp5[16:5],,4,4,,3,3,,{32}2x,1x,8xh[8:1],,,,,,7,,6,,5,,4,,
{16}3h[8:2],,2,,1,,8,,7h[8:2],,6,,5,,4,,
{16}8qq5[16:5],,6x,,5x,,4x,,2pp5[16:5],,4x,,5x,,,,
{16}8V64[8:6],,,,5,,,,4,,4,,3,,3,,
{16}A2/A3/D3,,,,A6/A7/D7,,,,Cf/B6/B7/B3/B2,,,,,,,,
{16}1V35[8:6],,,,4,,,,5,,5,,6,,6,,
{16}7h[8:2],,,,3h[8:2],,,,6h[8:2],,,,2h[8:2],,,,
{16}Cf,,,,2-5-8[8:3],,,,4,,5,,6pp1[8:4],,,,
{16}6/4qq1[8:2],,,,,,,,A1f,,,,Ch[8:1],,,,
{16}7h[16:3],,,6h[16:3],,,5h[16:2],,,,E7,,C,,E3,,
{16}2h[16:3],,,3h[16:3],,,4h[16:6],,,,8,,8,,5/7,,
{16}6,,5/4,,3,,2/4,,1,,2/4,,3,,5/4,,
{16}6,,4qq1[8:4]/5pp8[8:4],,3,,4/5,,,,,,,,,
{64}A8/A1,D2,D8,A7/A2,D7,D3,A3/A6,D4,D6,4xh[16:11]/5xh[16:11],,,,,,,{16},,,,,,,,,,,,,
{16}A7/A6/E7/B6/B7,,,A2/A3/E3/B3/B2,,,E1/B8/B1/B5/B4/E5/Cf,,,,,,,,,,
{48}3/7,E8,B8,B1,E2,,{16},,{48}3/7-2[8:1],E7,B6,B5,E5,,{16},,3/7-4[8:1],,3,,3/7-3[8:1],,3,,
{16}3h[8:1]/7bV13[8:1]*V53[8:1]/Cf,,,,,,,,3/4,,5,,6/2,,7,,
{48}6/2,E2,B1,B8,E8,,{16},,{48}6/2-7[8:1],E3,B3,B4,E5,,{16},,6/2-5[8:1],,6,,6/2-6[8:1],,6,,
{16}6h[8:1]/2bV86[8:1]*V46[8:1]/Cf,,,,,,,,4-8[8:1]/5-1[8:1],,,,5b/4b-2[8:1],,,,
{16}5-1[8:1]/4,,6,,5/3-8[8:1],,4,,3/6-2[8:1],,5,,6/3,,3-7-1-5[8:2],,
{16},,3/6,,6,,6,,,,E3,,E7,,C,,
{16}7x,5,6,1x,4,3,8x,5,6,2x,4,3,8xb/1xb,,8xb<1[8:2]/1xb>8[8:2],,
{16},,,,,,,,1/2,,8,,7/1,,6,,
{32}1/5,2,3,,,,,,1-3[8:1]/5,8,7,,,,,,5/1-7[8:1],,,,5,,,,5/1-5[8:1],,,,5,,,,
{16}5h[8:1]/1<5[16:2]*>5[16:2]/Cf,,,,,,,,6/4,,7,,8/3,,1,,
{32}8/4,7,6,,,,,,8-6[8:1]/4,1,2,,,,,,4/8-2[8:1],,,,4,,,,4/8-4[8:1],,,,4,,,,
{16}4h[8:1]/8>4[16:2]*<4[16:2]/Cf,,,,,,,,8-4[8:1]/1-5[8:1],,,,1b/8b-6[8:1],,,,
{16}1-5[8:1]/8,,2,,1/7-4[8:1],,8,,7/2-6[8:1],,1,,2/7,,7-3-5-1[8:2],,
{16},,7/2,,2,,2,,,,E7,,E3,,C,,
{16}3x,1,2,5x,8,7,4x,1,2,6x,8,7,4xb/5xb,,4xb>5[8:2]/5xb<4[8:2],,
{16},,,,,,,,2qq5[8:2]/7pp4[8:2],,,,2/7,,,,
{16},,B4,,B7,,E3,,B6,,,,E2,,,,
{32}1/5h[1:2],2,3,4,,6,7,8,1,2,3,4,,6,7,8,1,2,3,4,,6,7,8,1,2,3,4,,6,7,8,
{32}1,2,3,4,,6,7,8,1,2,3,4,,6,7,8,1,2,3,4,,6,7,8,1,2,3,4,,6,7,8,
{16}1b/Cf/B5/B1,,,,3x,,8x,,2/1,2/1h[16:1],,4,7,5,6,,
{16}8/7,8h[16:1]/7,,5,2,4,3,,{24}2,3,4,6,7,8,{32}2,3,4,5,6,7,8,1,
{64}2,E2/E3/B2f,B1,B3,B8,B4,E8,E5,A7,A5,,,,,,,6x,,,,,,,,6x,,,,,,,,{16}1,1h[8:1],,4,3,5,4,6,
{16}1,1h[8:1],,4,3,5,4,6,1,1h[8:1],,4,1>4[16:1]*<6[16:1],5,2,,
{16}1b,,,,6,,3,,4/5,,6h[16:3],5,,3h[8:1],4,,
{16},,2/6,,3-7[8:1]/7-3[8:1],,2/6,,3>8[12:1]/7<4[12:1],,,,3b/7b,,,,
{16}1b,,,,3x,,7x,,8h[8:1]/1,1,,2,8h[8:1]/2,,3,,
{16}8h[8:1]/1,1,,2,8h[8:1]/2,,3,,1-7[10:1],1,7-3[8:1],,1,,5,,
{16}4b,,,,3x,,7x,,8h[32:3]/2-6[8:1],,,7h[32:3],,,7h[16:1],,
{16}8h[32:3]/3-6[8:1],,,7h[32:3],,,7h[16:1],,4/8,,5/1,,4-7[8:1]/8-3[8:1],3/7,2/6,,
{16}4/8,,,,6x,,2x,,1h[8:1]/8,8,,7,1h[8:1]/7,,6,,
{16}1h[8:1]/8,8,,7,1h[8:1]/7,,6,,8-4[8:1],8,4-6[12:1],,8,,2,,
{16}1b,,,,4/5,,,6,5/7,,3,2/4,,8/1,2/7h[8:3],,
{16},,,,2,3,4,5,2b-7[8:1]/6b-3[8:1],,,,,,,,
{16}1/8,,1/8,1/8,,7/6,,6/5,,4/3,,1s5[16:1]/8<1[8:5],,2/7,,1/8,
{24},,,,,,,,,,,,,,8x,7x,6x,5x,,,,
{16},,,,,,,,,,,,,,,,
{16},,,,,,,,,,,,,,,,
