&title=Nostalgia
&artist=Sound Online feat. 三澤秋
&first=0
&des=Sakurago
&lv_5=13
&inote_5=(162.00)
{8},,,,,,,,
{8},,,,,,,,
{8}E4,B4,B5,E6,,,,,
{8}E4,B4,B5,E6,,,,,
{8}E4,B4,B5,E6,,,,,
{8}E4,E7,E3,E6,E2,E5,C,,
{8}A1,E1,E8,A7,,,,,
{8}A2,B2,B6,A6,,,,,
{8}A3,E4,E5,A5,,,,,
{8}E2,E8,E4,E6,Chf[8:2],,,,
{8}7hx[8:2]/3hx[8:5],,,5h[8:4],,,1h[8:4],,
{8}4h[8:5],,,6h[8:4],,,8h[8:4],,
{8}2h[8:5],,,5h[8:3],,,3qq8[8:6],,
{8}7h[8:1],,6h[8:1],,5h[8:1],,6h[8:1],,
{8}1hx[8:2]/7hx[8:5],,,3h[8:4],,,5h[8:4],,
{8}8h[8:5],,,2h[8:4],,,4h[8:4],,
{8}6h[8:5],,,3h[8:3],,,5s1[8:6],,
{8}4z8[8:4],,,,,,,,
{8}7x<2[8:8],,,,,,,,
{8}2<5[8:8],,,,,,,,
{8}5V38[8:8],,,,{16},,,,,,,,
{8}8V63[8:8],,,,,,,,
{8}3<8[8:8],,,,,,,,
{8}8qq4[8:8],,,,,,,,
{8}4<1[8:8]*q1[8:8],,,,,,,,
{8},,,,7b/2b,7b/2b,,,
{8}4h[8:4]/5qq8[8:8],,,,,,,,
{8}8<3[8:8],,,,,,3h[8:1],,
{8}3p8[8:8],,,2h[8:3],,,,,
{8}8>6[8:8],,,,,,6h[8:1],,
{8}6V84[8:8],,,B5,,,E3,,
{8}4<8[8:6],,,,C,,1V35[8:10],1V75[8:9],
{8},,,,,,,,
{8},,,,3b/6b,3b/6b,,,
{8}4-6[8:1],,3h[8:4],,,B6,B8,,
{8}2-4[8:1],,7h[8:4],,,B5,C,,
{8}7<5[8:1],,1h[8:4],,,B4,B6,,
{8}1b/2b,3h,1b/2b,8h,2b/1b,3h,1b/2b,,
{8}7-5[8:1],,8h[8:1],,,E1/E2,B3/B7,,
{8}3h[8:1],,2h[8:1]/6h[8:1],,3h[8:1]/7h[8:1],,4h[8:1]/8h[8:1],,
{8}E5,E6,E7,E8,E1,E2,E3,E4,
{8}B8,B2,B6,B4,Ch[8:2],,,,
{8}5x-3[8:1],,6h[8:4],,,B3,B1,,
{8}7-5[8:1],,2h[8:4],,,B4,C,,
{8}2>4[8:1],,8h[8:4],,,B5,B3,,
{8}8b/7b,6h,8b/7b,1h,7b/8b,6h,8b/7b,,
{8}2>4[8:1],,1h[8:1],,,E1/E8,B6/B2,,
{8}6h[8:1],,7h[8:1]/3h[8:1],,6h[8:1]/2h[8:1],,5h[8:1]/1h[8:1],,
{8}A4,A3,A2,A1,A8,A7,A6,A5,
{8}Ch[8:2],,,,1-5[8:1]/2-6[8:1],,1b/2b,,
{8}4x>5[8:60]/7hx[8:4],,,,,,,,
{8}E7,,E6,,E5,,,,
{8}3h[8:4],,,,,,,,
{8}E2,,E3,,E4,,E5,,
{8}Ch[8:8],,,,,,,,
{8},,,E7,B6,B5,,,
{8}E4/E5,,,E3/E2,,,E1/E8,,
{8},Chf[8:5],,,,,,,
{8}2x-5[8:1],,1h[8:1],,{16}5x-8[8:1],,,6h[16:3],,,,,
{8}8x-3[8:1],,E5/E6,,3x-6[8:1]*-8[8:1],,,,
{8}7-4[8:1],,8h[8:1],,{16}4x-1[8:1],,,3h[16:3],,,,,
{8}1x-6[8:1],,E5/E4,,6x-3[8:1]*-1[8:1],,,,
{8}2h[8:3]/8h[8:2],,,6qq3[8:4],,,,,
{8}1qq4[8:5],,,,5x<7[8:1],,,,
{8}8b/E4,E5,E6,2b/E7,E8,E1,6b/E2,E3,
{8}E4,1bx/5bx,2bx/6bx,3bx/7bx,4bhx[8:1]/8bx-4b[8:1],,8b,,
{8}2v4[8:1]/6v8[8:1],,2s6[8:3]/6s2[8:3],,,,,,
{8}3-1[8:1],,B6,4-8[8:1],,B1,B2,E3,
{8}3x-7[8:1]/7x-3[8:1],,,,E4/E8,E2/E6,,1h[8:2]/C,
{8},5h[8:2],3V14[8:3],3pp4[8:2],,,,,
{8}7>1[8:1],,7qq4[8:3]/1pp4[8:3],,,,,,
{8}3>1[8:1],,B7/B6,5pp5[8:2]*qq5[8:2],,,,,
{8}4v2[8:1],,8v6[8:1],,B2,3x-5[8:1],,7V15[8:2],
{8},B4,B3,E3,,1b,8b/2b,7b/3b,
{8}4xq1[8:1]/6xp1[8:1],,4x>6[8:3]/6x<4[8:3],,,,,,
{8}5-7[8:1],,E3,1h[8:4],,E1,C,E5,
{8}6xz2[8:2],,2xz6[8:2],,E1,E2,,3p8[8:3],
{8},E8,E7,E6,,B4/B5,B1/B2,B7/B8,
{8}3-8[8:1],,C,4-7[8:1],,B1,B2,B3,
{8}4-1[8:1],,C,5-8[8:1],,B2,B3,B4,
{8}5>2[8:1],,C,6<1[8:1],,B3,B4,B5,
{8}6V84[8:2],,5hx[8:1],,,3bx-8[8:1]/7bx-4[8:1],,3b<3[8:27]/7b>7[8:27]`Cf,
{8},,,,,,,,
{8},,,,,,,,
{8},,,,,,,,
{8},,,,,,,,
{8}3hx[8:2]/6hx[8:5],,,5h[8:4],,,3h[8:4],,
{8}4h[8:5],,,5h[8:4],,,6h[8:4],,
{8}3hx[8:5],,,5h[8:4],,,4h[8:4],,
{8}3h[8:5],,,6h[8:3],,,B2/B3/E3,,
{8}5b-1[8:24]*v4[8:24],,,,,,,,
{8},,,,,,,,
{8},,,,,,,,
{8},,,,,,,,
{8},,,,,,,,
{8},,,,,,,,
{8},,,,,,,,
{8},,,,,,,,
{8},,,,,,,,
{8},,,,,,,,
