&title=OveR
&artist=富田美憂
&first=0
&des=Kyono Natsumi
&lv_4=10+
&inote_4=(198){1},
{16}6h[4:2],,,,,,,,3h[2:1],,,,,,,,
{16}5h[4:2],,,,,,,,4h[2:1],,,,,,,,
{16}7h[8:3],,,,,,1h[8:3],,,,,,8<2[4:3]*q2[4:3],,,,
{16},,,,,,,,,,,,,,,,
{16}3h[4:2],,,,,,,,6h[2:1],,,,,,,,
{16}4h[4:2],,,,,,,,5h[2:1],,,,,,,,
{16}1V35[1:1]*V75[1:1],,,,,,,,,,,,,,,,
{16},,,,,,,,4,,5/3,,62,,1/7,,
{16}8b-4[8:1],,,,1,,,,2-5[8:1],,,,8,,,,
{16}7-3[8:1],,,,3,,,,4qq1[4:3],,,,5,,,,
{16}6,,,,7,,,,8,,,,26,,,,
{16}45,,,,3,,5,,4,,6,,2,,,,
{16}1b-5[8:1],,,,8,,,,7-4[8:1],,,,1,,,,
{16}2-6[8:1],,,,6,,,,5pp8[4:3],,,,4,,,,
{16}3,,,,2,,,,1,,,,73,,,,
{16}45,,,,6,,,,3,,4,,5,,6h[16:1]/3h[16:1],,
{16},,,,,,,,1p4[4:3],,,,,,,,
{16},,,,,,,,5p8[4:3],,,,,,,,
{16},,,,,,,,3h[4:2],,,,,,,,
{16}6h[4:2],,,,,,,,2h[4:2],,,,,,,,
{16}7h[4:2],,,,,,,,3<6[4:3],,,,,,,,
{16},,,,,,,,7>2[4:3],,,,,,,,
{16},,,,,,,,4h[4:2],,,,,,,,
{16}8h[4:2],,,,,,,,1h[4:2],,,,,,,,
{16}7V58[2:1],,,,,,,,3,,,,,,,,
{16}6,,,,,,,,5-7[8:4]/4-1[8:4],,,,,,,,
{16},,,,,,,,3,,,,,,,,
{16}3V14[2:1]*pp4[2:1],,,,,,,,,,,,,,,,
{16}6,,,,,,,,2^4[4:1],,,,5-2[4:1],,,,
{16},,,,,,,,3,,,,,,,,
{16}5pp8[8:12]/4qq1[8:12],,,,,,,,,,,,,,,,
{16},,,,,,,,,,,,,,,,
{16}1^4[32:8],,,,,,,,5-8[4:1],,,,4,,,,
{16}3,,,,,,,,2/7v6[4:1],,,,,,,,
{16}1^4[32:8],,,,,,,,5-8[4:1],,,,4,,,,
{16}3,,,,7,,,,2,,,,8,,,,
{16}1>6[8:3],,,,,,,,7h[2:1],,,,,,,,
{16}6>1[8:3],,,,,,7,,7,,,,8,,,,
{16}1,,8,,1,,8,,1,,8,,1,,8,,
{16}1,,8,,1,,8,,1,,8,,1,,8,,
{16}2,,7,,2,,7,,2,,7,,2,,7,,
{16}34,,56,,78,,1b-6[8:1]/2b-5[8:1],,,,,,,,,,
{16}4-2[8:1],,4,,8-6[8:1],,8,,4,,,,,,3b-8[8:1],,
{16},,7b-3[8:1],,,,1bw5[8:1],,,,,,,,,,
{16}8-5[8:1],,8,,4-1[8:1],,4,,8-5[8:1],,8,,,,2b-5[8:1],,
{16},,8b-4[8:1],,,,3b,,,,2^5[8:1],,1,,8,,
{16},,,,8qq5[8:3],,8,,,,,,4qq1[8:3],,4,,
{16},,,,8,,8^5[8:1],,,,4,,,,,,
{16}6,,6V84[8:3],,,,3h[4:1],,,,,,,,,,
{16}3,,3V15[8:3],,,,6,,,,6b,,,,6-2[8:1],,
{16},,4-1[8:1],,4,,7-4[8:1],,7,,2-5[8:1],,2,,6-1[8:1],,
{16},,2-5[8:1],,,,6-1[8:1],,,,,,,,{24}3b,,,
{16},,4-1[8:1],,4,,7-4[8:1],,7,,2-5[8:1],,2,,6-1[8:1],,
{16},,2-5[8:1],,,,6-1[8:1],,,,4,,3,,2h[8:3],,
{16},,,,7V53[4:1],,7,,,,,,2V46[4:1],,2,,
{16},,,,1,,8,,,,74,,,,,,
{16}7h[2:1],,,,,,,,8h[2:1],,,,,,,,
{16}1h[2:1],,,,,,,,2h[2:1],,,,,,,,
{16}1,,,,,,38,,,,26,,,,4V26[8:5]/7V15[8:5],,
{1},
{16}8,,,,61,,61,,,,28,,,,3pp7[8:5]/7pp3[8:5],,
{1},
{16}1bv2[4:1],,,,,,,,7bv4[4:1],,,,,,,,
{16}3bv8[4:1],,,,,,,,7b,,,,,,,,
{1}7qq8[4:6]/1pp8[4:6],,
{16}8-4[8:1],,,,2-6[8:1],,,,8-4[8:1],,,,2b,,,,
{16}1-5[8:1],,,,7-3[8:1],,,,1-5[8:1],,,,7b,,,,
{16}8b-5[8:1],,,,3-8[8:1],,,,6-3[8:1],,,,1,,,,
{12}2,8,2,8,2,8,{32}2h[2:1],,,,,,,,,,,,,,,,
{16}7^4[8:1],,8,,1,,2,,3^8[8:1],,4,,5,,6,,
{16}7-4[8:1],,8,,1,,2,,3-8[8:1],,4,,5,,6b,,
{16},,,,,,,,,,,,,,,,
E
