&title=オペラ!スペースオペラ!
&artist=ワンダーランズ×ショウタイム
&first=0.02
&des=NaTsuYu
&lv_5=14.1
&inote_5=(198){1},
{8}4h[16:4],,7h[16:4],,1h[16:4],,5,1bx/5bx,
{8},3/4,4/5,5/6,,1,2,3,
{8}4/5,5,5/6,5,4/5,4,3/4,4b/5b,
{8},2,1,8,7-3b[16:2],,7b,,
{12}2xh[12:1],3xh[12:1],4xh[12:1],7xh[12:1],6xh[12:1],5xh[12:1],2xh[12:1],3xh[12:1],4xh[12:1],7xh[12:1],6xh[12:1],5xh[12:1],
{12}2xh[12:1],3xh[12:1],4xh[12:1],7xh[12:1],6xh[12:1],5xh[12:1],2xh[12:1],3xh[12:1],4xh[12:1],7xh[12:1],6xh[12:1],5xh[12:1],
{8}1h[16:8],8,7,6,5h[16:8],4,3,2,
{12}1,2,3,4/7,6,5,
{8}4h[16:4],8b,8b,,
{12}7xh[12:1],6xh[12:1],5xh[12:1],2xh[12:1],3xh[12:1],4xh[12:1],7xh[12:1],6xh[12:1],5xh[12:1],2xh[12:1],3xh[12:1],4xh[12:1],
{12}7xh[12:1],6xh[12:1],5xh[12:1],2xh[12:1],3xh[12:1],4xh[12:1],7xh[12:1],6xh[12:1],5xh[12:1],2xh[12:1],3xh[12:1],4xh[12:1],
{8}8h[16:8],1,2,3,4h[16:8],5,6,7,
{12}8,7,6,5/2,3,4,
{8}1b/5b,,{16}7,5,7,5,
{8}7h[16:4],6,5h[16:4],7,8h[16:4],5,4h[16:4],8,
{8}1h[16:4],4,3h[16:4],8,7,2/6,{16}3,4,5,6,
{8}7h[16:4],,1,2h[16:4],,6,5-8[16:2],4,
{8}3/5x-2[16:2],,5x-1[16:2]/7,,5x,,{16}2,4,2,4,
{8}2h[16:4],3,4h[16:4],2,1h[16:4],4,5h[16:4],1,
{8}8h[16:4],5,6h[16:4],1,2,7/3,{16}6,5,4,3,
{8}2h[16:4],,8,7h[16:4],,3,4-1[16:2],5,
{8}6/4x-7[16:2],,4x-8[16:2]/2,,4x,,{16}7-4[16:2],5,7,5,
{8}7>2[16:2],,7<4[16:2],,7-2[16:2],,7,,
{8}8,7,6,5,4,3,{16}2-5[16:2],4,2,4,
{8}2<7[16:2],,2>5[16:2],,2-7[16:2],,2,,
{8}1,2,3,4,5,6,{16}7,1,7,1,
{8}7,6,5,4,3,2,1,8,
{8}7,6,5,4,3,2,{16}1w5[16:2],7,1,7,
{8}1,,8h[16:2],7h[16:2],6h[16:2],5h[16:2],4h[16:2],3h[16:2],
{8}2h[16:2],1,1/8,,{12}2x/7x,1x,8x,7x,8x,1x,
{8}2x/7x,,B4,B3,E3,B2,B1,,
{8}6/3,,B8,B7,E7,B6,B5,,
{8}2/7,,B4/B8,B3/B7,E3/E7,B2/B6,B1/B5,2h[16:3]/6h[16:3],
{8},3h[16:3]/7h[16:3],,4/8,,2,1-5[16:2]/8,7,
{8}1x/7-3[16:2],,2-7[16:2]/7x,,2x/6-3[16:2],,1>8[16:16]/6x,,
{8}1x,,E7,,C,,E3,,
{8}4-8[16:2],,6-3[16:2]/4x,,6x/1-3[16:2],,1xp8[16:8],,
{8}1x,8,7,6,{16}5,1,5,1,2,6,2,6,
{8}3/7,4,5,2/6,1,8,2pp3>1b[16:6]/7qq6<8b[16:6],1/8,
{8},,,B1/B8/D1/D2/D8/E1f/E2/E8,,,,,
{8}1b/8b,,2b/7b,,3b/6b,,2/6,3,
{8}2/8,3,2/4,3,2/7,3,2/5,3,
{8}1b/8b,,2b/7b,,3b/6b,,7/3,6,
{8}7/1,6,7/5,6,7/2,6,{16}7/4,6,5,4,
{8}3h[16:6],,,1,1b/3b,,1b/8b,,
{8}6h[16:6],,,8,8b/6b,,8b/1b,,
{8}4/5,,6,5/7,,3,2/4,3,
{8}5/6,5/6,5/6,,3/4,3/4,3/4,,
{8}1b/8b,,2b/7b,,3b/6b,,2/6,3,
{8}2/8,3,2/4,3,2/7,3,2/5,3,
{16}1/2,,,6/7,5,,4/6,,
{16}3/5,,,3/2,4,,5/3,,
{8}4/6h[16:8],,{16},,5,4,{8}3h[16:4],,{16}4,2,4,2,
{8}4,,4b/5b,,3b/6b,,2b/7b,,
{8}3b/6b,,2b/7b,,1b/8b,,{16}6,3,6,3,
{8}6,5,4,3,2,1,8,7,
{8}5/6,5/6,5/6,{16}5/6,7,{8}8/1,,{16}3,6,3,6,
{8}3,3,3/2,3,3/5,3,3/1,3,
{8}3/6,3/8,,4b/6b,,1,8,7,
{8}6/5,6,6/7,6,6/4,6,6/8,6,
{8}6/3,6/1,,3b/5b,{16},,2,6,3,7,4,8,
{8}1h[16:4]/5,,2,3/8,4/7,{16}5,6,5,,{8}4/7,
{8}3/8,2,1/6,5,4/7,8,1/6,2,
{8}3/6,3h[16:4]/6,,1,8,7,{16}3/6,4,5,4,
{16}3/6,,,4/7,,,2/5,,1b/8b,,,,2,7,2,7,
{8}2,2,2/1,2,2/4,2,2/8,2,
{8}2/5,2/7,,3b/5b,,2,1,8,
{8}7/6,7,7/8,7,7/5,7,7/1,7,
{8}7/4,7/2,,4b/6b,{16},,3,7,2,6,1,5,
{8}8h[16:4]/4-8[16:2],,4b,,5h[16:4]/2-5[16:2],,2b,,
{8}1h[16:4]/6-1[16:2],,6b,,4h[16:4]/8-4[16:2],,8b,,
{8}5/7,5/7,5b/7b,,4/2,4/2,1/5,4b/2b,
{8},5/7,4/8,4/2,5/1,,3b/6b,,
{12}2xh[12:1],3xh[12:1],4xh[12:1],7xh[12:1],6xh[12:1],5xh[12:1],1xh[12:1],2xh[12:1],3xh[12:1],8xh[12:1],7xh[12:1],6xh[12:1],
{12}2xh[12:1],3xh[12:1],4xh[12:1],7xh[12:1],6xh[12:1],5xh[12:1],1xh[12:1],2xh[12:1],3xh[12:1],8xh[12:1],7xh[12:1],6xh[12:1],
{8}2h[16:8],4,5,4,7h[16:8],5,4,5,
{12}2,3,4,5/7,6,5,{8}4bx/5bx,,{16}1,8,1,8,
{8}1h[16:16],,2,,4,,6,,
{8}8h[16:16],,7,,5,,3,,
{8}4h[16:16],,3,,1,,7,,
{8}5h[16:16],,6,,8,,2,,
{8}4h[16:12],,,,1-6[16:2],,1b,,
{8}5h[16:12],,,,8-3[16:2],,8b,7,
{8}7h[16:4],,1,1/8,1/8,1/8,1/8,1/8,
{16}2b/8b,,,3b/5b,,,4b/6b,,1b/7b,8,7,6,5,4,3,2,
{8}1b/8b,,2b/7b,,3b/6b,,7/3,6,
{8}7/1,6,7/5,6,7/2,6,7/4,6,
{16}5/6,,,2/3,1,,8/2,,
{16}7/1,,,7/6,8,,1/7,,
{8}2h[16:8]/8,,,{16}1,8,{8}7h[16:4],,{16}4,5,4,5,
{8}4v1[16:2],,4b/7>2[16:2],,3<6[16:2]/7b,,3b/8v5[16:2],,
{8}4-1[16:2]/8b,,4b/8-5[16:2],,4/8b,,{16}1,8,1,8,
{8}1,8,7,6,5,4,3,2,
{32}1x,2x,3x,4x,5x,6x,7x,8x,
{32}1x,2x,3x,4x,5x,6x,7x,8x,
{16},,,,4,5,4,5,
{8}4,4,3/4,4,4/6,4,4/2,4,
{8}4/7,4/1,,5b/7b,,8,7,6,
{8}5/4,5,6/5,5,5/3,5,5/7,5,
{8}5/2,5/8,,2b/4b,{16},,1,5,2,6,3,7,
{8}4h[16:4]/8V64[16:2],,8b,,5h[16:4]/1V35[16:2],,1b,,
{8}8h[16:4]/4V28[16:2],,4b,,1h[16:4]/5V71[16:2],,5b,,
{8}6/8,6/8,6b/8b,,1/3,1/3,4/8,1b/3b,
{8},6/8,1/5,1/3,4/8,,2b/7b,,
{8}1,1,1,,{16}E3,B3,B4,B5,B6,E7,1/8,,
{8},2/3,3/4,5/6,6/7,,1b/8b,,
{8},,,,,,,,
{8},,,,,,,,
{8},,,,,,,,
{8},,,,,,,,
{8},,,,,,,,
{8},,,,,,,,
{8},,,,,,,,
{8},,,,,,,,
{8},,,,,,,,
{8},,,,,,,,
{8},,,,,,,,
{8},,,,,,,,
{8},,,,,,,,
{8},,,,,,,,
{8},,,,,,,,
{8},,,,,,,,
{8},,,,,,,,
{8},,,,,,,,
{8},,,,,,,,
{8},,,,,,,,
{8},,,,,,,,
