&title=5UPER BREEZE CH∀NCE
&artist=さんわり
&first=0
&des=nobder
&des_5=nobder
&lv_5=14
&inote_5=(155){1},
{4},,{24}2x,3x,4x,7x,6x,5x,{8}1x-5[8:1],{16}7x,8x,
{4}1x/6x,4/7h[8:1],4/6h[8:1],{8}3/5h[8:1],2,
{4}4/1,5/2h[8:1],5/3h[8:1],{8}5/4h[8:1],6,
{24}5/7pp4[2:1],E5,E4,E3,E2,E1,E8,B7,C,B2,E2,A1,{2}D1,
{16}7x,5,6x,5,7x,5,6x,5,{8}7x,8/4-8[16:1],{16},6-1[16:1],,,{4}2b,
{8}3h[16:3],{24}B8,B7,,{8}3h[16:3],{24}B8,B7,,{8}3h[16:3],{24}B8,B7,,{8}6xh[8:1],
{24}B1,B2,,{8}6xh[8:1],{24}B3,B4,,{8}5/6xh[8:1],4,3/6xh[8:1],2,
{16}7/1,2,3,4,5/8,1,2,3,{24}4/7,8x,1x,2x,3x,4x,5x,6x,7x,8x,1x,2x,
{16}3bx/Cfh[1:1],,,,,E2/B1/B2,,,B7/E8/B8,,,E4/B4/B3,,,{8}B6/E6/B5,
,,4/5h[16:3],3,2/5h[16:3],1,2/5h[16:3],3,
{4}4/5,{8}5/4h[8:1],5,6/4h[8:1],6,7/4h[8:1],7,
8-3[8:1],7,6/8,5,4-8[8:1],3,{4}4/2-5[8:1],
{8}2/7-3[8:1],6,7/2-6[8:1],1,2/7-4[8:1],8,{4}7/1-5[8:1],
1/7pp4[2:1],,,2-6[8:1],
2b/5h[4:1],1q5[4:1],,7-3[8:1],
7b/4h[4:1],8p4[4:1],,2-7[8:1]*-5[16:1],
2qq5[2:1],Ch[8:3],{16},,,,,B2/B1,,,{8}B3/B4/B6/B5,
{16}E2,E8,B2,B7,B3,B6,4,5,3,6,2,7,1,8,
E2,E8,B2,B7,B3,B6,E4,E6,4x,5x,3,6,2,7,1,8,
E2,E4,E3,E8,E6,E7,C,8,1,7,2,6,3,5,4,4,
B8,B4,B7,B3,B6,B2,B5,B1,5x,1x,{8}6-2[16:1]/2-6[16:1],{16},C,,,{8}4/5,
{16}6,3,7,2,8,1,E6,E4,B6,B3,B7,B2,E8,E2,
7,5,6,2,4,3,8,1,E8,E2,B7,B2,B6,B3,E6,E4,
5x,4x,6,3,7,2,8,1,{24}E1,B8,B7,B6,B5,B4,B3,B2,B1,B8,B7,B6,
{1}B5/Cfh[8:5],
{4}7/3,{16}8/2-4[8:1],1,,1,{8}2/8-6[8:1],1,{4}8/2,
5/3,{16}1/7-5[8:1],8,,8,{8}7/1-3[8:1],8,{4}7/1,
E3/E7/B7/B6/B2/B3,{16}5/3-1[8:1],4,,4,{8}3/5-7[8:1],4,{4}5/3pp8[8:5],
{16}3/5h[8:5],,,,,,,,,,,,,5/2,,,{4}7/3,
{16}6-8[8:1],4,{8}5,6/4-2[8:1],5,{4}6/4,
7/1,{16}3-1[8:1],5,{8}4,3/5-7[8:1],4,{4}5/3,
B3/E4/B4/B8/E8/B7,{16}2-4[8:1],8,{8}1,2/8-6[8:1],1,{4}8/2-6[8:1],
{8}2-5[8:1],{16}7,7,{8}2-4[8:1],{16}8,8,{8}2,1b,{16},7/3,,,{4}5/1,
{8}6h[16:3],{24}3x,4x,,{8}6h[16:3],{24}2x,3x,,{8}6h[8:1],{24}1x,2x,,{4}3x/7<5[8:1],
1h[8:1]/7-4[8:1],1h[8:1]/7-3[8:1],1h[8:1],
{8}8/2,{16}3,5,3,5,4,6,{8}4,3/7,{16}6,4,6,4,
7,5,7,5,6,4,6,4,5,4,{8}6/3,{16},4/1,,,{4}5/8-5[8:1],
6h[16:3],{8}6h[16:3],{24}B3,B4,,{8}6h[16:3],{24}B3,B4,,{4}5x/6x<2[2:1],
5xh[8:1],4xh[8:1],4xh[8:1],
3/5-1[8:1],{8}6,7,8,1,4/2>8[4:1],5,
{2}5h[8:3],1z5[8:1]/4s8[8:1],
Ch[1:3],{4}8-5[8:1],8,
7-4[8:1],7,{8}8,8,7,7,
{2}6>3[8:1],{4}E6/A6/B6,{16}8,7,{8}6,
{4}6qq1[2:1],3h[4:3],,,{2}Ch[1:3],
{4}2-5[8:1],2,
1q5[8:1],1,{8}4x,4x,3,3,
{2}2<7[8:1],{8}A2/B2/E2,{16}2x,3x,{4}4x,
{12}2x,1,1,8/2,3,3,4/2,5,5,6/4,7,7,
6/8,1,2,3>8[8:1],4,5,{4}6>3[8:1],3<5[8:1],
{12}2,1,8,7>1[8:1],6,5,{4}4-8[8:1],8-5[8:1],
{12}1,2,3,4-1[8:1],6,7,{4}8-5[8:1],2-5[8:1],
{12}1-5[8:1],1,{6}1,{12},,8/1w5[8:1],8/1,{3}8/1,
{12}3/7,2,1,8-3[8:1],7,6,{4}5-1[8:1],5/4,
{12}7,6,5,4-7[8:1],3,2,{4}1-5[8:1],1/8,
{16}8,7,6,5,4,3,2,1,8/4,7,6,5,4,3,2,1,
{2}8q6[4:1]/4q2[4:1],{4}A6/A2,8<5[8:1]/4>1[8:1],
{2}8b/4b,{8}1/5h[16:3],B1,1/5h[16:3],B2,
2/6h[16:3],2h[16:3],6h[16:3],2h[16:3],6h[16:3],2h[16:3],7,3,
7-5[8:1],5v4[8:1],4-2[8:1],3h[8:3],{16},,,,,,,,6,
5h[8:1],,,7,4h[8:1],,,{8}5,{16}4,5,4,6/3,,,{8}8/1,
B6,6/2h[8:1],B5,5/2h[8:1],B4,4/1h[8:1],B3,
{4}3/1h[8:1],{8}1h[8:1],4h[8:1],2h[8:1],5h[8:1],3h[8:1],6,
{16}5-1[8:1]/4-8[8:1],3,{8}6,{4}5/4,{8}7/2,6/3,4-8[8:1]/5-1[8:1],6/3,
{2}5b/4b,1z5[8:1]/8s4[8:1],
{4}7/2,{16}6,5,{8}6,{32}7/4h[4:1],E7,B6,B5,{8}E5,{32}7,E8,B8,B1,{8}3/E2,
{4}8x/2x,{24}3,4,3,4,{96},,,,,,,,{32}5/2,E3,B3,B4,{8}6/E5,{32}5/2,E2,B1,B8,{8}6/E8,
{16}1/7-4[8:1],5,{8}6,4/7-2[8:1],3,7,5,{16}7,4,7,4,
6,3,6,3,5,4,6,3,7,2,{8}8/1,{24}2x,3x,4x,7x,6x,5x,
{8}1b-4[8:1],2,{4}1/5h[4:1],{32}1,E1,B8,B7,{8}5/E7,6x/1x,7,
{16}1/8-5[8:1],2,{8}7,8/1,2,{16}3,4,{8}3,5/2,6,
7h[4:1]/1-4[8:1],8,1-6[8:1],8,1/5,4,{24}3,4,3,4,,,{2}2/5-8-6[8:1]*-2-4[8:1],
5w1[8:1],
{24}3x/7x,4x,{12}5,{96},,,,,,,,{32}7,E7,B6,B5,{8}3/E5,{32}2,E2,B1,B8,{8}5/E8,{16}6,5,{8}6,
{16}7/4,7/4,,,{4}2xh[8:1]/5x-1[8:1],{8}3,4,{16}7,5,{8}7,
6/4-7[8:1],5,2/4-1[8:1],3,6/4,5,{24}2,4,2,4,,,{8}3b/5-1[8:1],
4b,5b,4b,3b,2b,{24}8b,1,8,1,,,{8}7/2,
{16}1,8,{32}2/7,E7/E3,B6/B3,B5/B4,{8}E5,{32}3/6,E3/E7,B2/B7,B1/B8,{8}E1,{16}4,5,{8}4,
{12}3/7,3/7,3/7,5x/1x-5[8:1],{24},{8}6,5,6,{24}3,4,3,4,,,{8}5/2,
6,{32}4/7,E7,B6,B5,{8}3/E5,{24}2/5,3,4,5,6,7,8/4,3,2,1,8,7,
{4}6/2-5b[8:1],{16}2b/7b-4b[16:1],,,7b/1bx-6b[16:1],,,{8}1bx/8bx-4b[16:1],{16},8bx,,,3x,
5x,3x,5x,2,6,2,6,{24}1,2,3,4,5,6,7,8,1,2,3,4,
{4}5z1b[8:1]/8s4b[8:1],8b/5b,
E
