&title=fragmentation
&artist=ルゼ
&first=-0.305
&des=别踢,有fragmentation
&clock_count=4
&lv_7=纵
&inote_7=(175)
{1},,
{8}8/2,1,1,,7-4[8:1]/1-4[8:1],8,,,
{16}6,5,,3,4,,6,,5-8[8:1]/3-8[8:1],,,,,,,,
{8}6/2,3,6/4,7,6/4,3,6/4,7,
{8}5/3,2,5/3,6,5/3,2,5/3,6,
{8}7/1,2,7/1,6,7/1,2,7/1,6,
{8}5/3,2,5/3,6,5/3,2,5/3,6,
{8}7/8,1,8/2,3,4/6,5,7/4,3,
{8}8/2,7,6/5,4,3/5,2,1/8,7,
{8}6/4,5,4/3,5,6/4,7,8/1,2,
{8}3/5,4,5/6,7,8/2,3,4/5,{16}2,2,
{8}2,8,7/5,4,{16}1,2,1,,3/4,,5,,
{8}7,1,2/4,5,{16}8,7,8,,6/5,,4,,
{8}2,8,7/5,4,{16}1,2,1,,3/4,,5,,
{8}7,1,2/4,5,{16}8,7,8,,6/5,,4,,
{8}2,8,7/5,4,{16}7,8,7,,2/4,,5,,
{8}7,1,2/4,5,{16}2,1,2,,7/5,,4,,
{8}2,8,7/5,4,{16}7,8,7,,2/4,,5,,
{8}6/4,6/4,7/3,7/3,{16}2,8,2,,7/3,,6/4,,
{16}5,5,5,5,5,,6/4,,5v2[8:1]*v8[8:1],,,5,5,,,,
{16}1,1,1,,8/2,,7/3,,5,5,5,,6/4,,7/3,,
{16}1,1,1,,8/2,,7/3,,5,5,5,,6/4,,7/3,,
{16}1,1,1,,3/4,,6/5,,8,8,8,,6/5,,4/3,,
{16}1,1,1,,3/4,,6/5,,8,8,8,,6/5,,4/3,,
{16}8,8,8,,7/1,,6/2,,4,4,4,,5/3,,6/2,,
{16}8,8,8,,7/1,,6/2,,4,4,4,,5/3,,6/2,,
{16}8,8,8,,6/5,,3/4,,1,1,1,,3/4,,5/6,,
{16}8,8,8,,6/5,,3/4,,1,1,1,,3/4,,5b,5b,
{16}5b,,3,,1/8,,6/5,,3,3,3,,6/5,,7/8,,
{16}2,2,2,,3/4,,6/5,,7,7,7,,1/2,,3/4,,
{16}6,6,6,,4/3,,1/2,,8,8,8,,6/5,,3/4,,
{16}2,2,2,,3/4,,6/5,,8,8,8,,6/5,,2/3,,
{16}4,4,4,,8/1,,3/4,,6,6,6,,3/4,,2/1,,
{16}7,7,7,,6/5,,3/4,,2,2,2,,8/7,,6/5,,
{16}1,1,1,1,1,1,1,1,1,1,1,1,1,1,1,1,
{16}1,,8/2,,1,1,1,,7/3,,6/4,,{32}5,6,7,8,1,2,3,4,
{16}5,5,5,5,5,,6/4,,5,5,5,5,5,,6/4,,
{16}5,5,5,5,5,,6/4,,5,5,5,5,5,,6/4,,
{16}5,5,5,5,5,,6/4,,5,5,5,5,5,,6/4,,
{16}5,5,5,5,5,,6/4,,5,5,5,5,5,,7/3,,
{16}4,4,4,4,4,,3/5,,4,4,4,4,4,,3/5,,
{16}4,4,4,4,4,,3/5,,4,4,4,4,4,,3/5,,
{16}4,4,4,4,4,,3/5,,4,4,4,4,4,,3/5,,
{16}4,4,4,4,4,,3/5,,4,4,4,4,4,,6/2,,
{16}8,8,8,8,8,,7/1,,8,8,8,8,8,,7/1,,
{16}8,8,8,8,8,,7/1,,8,8,8,8,8,,7/1,,
{16}8,8,8,8,8,,7/1,,8,8,8,8,8,,7/1,,
{16}8,8,8,8,8,,7/1,,8,8,8,8,8,,6/2,,
{16}1,1,1,1,1,,8/2,,1,1,1,1,1,,8/2,,
{16}1,1,1,1,1,,8/2,,1,1,1,1,1,,8/2,,
{16}1,1,1,1,1,1,1,1,1,1,1,1,1,1,1,1,
{16}1b,,8/2,8/2,8/2,,1,,8/2,8/2,8/2,,{32}1,2,3,4,5,6,7,8,
{16}1b,,5/4,5/4,5/4,,5/4,5/4,5/4,,5/4,5/4,5/4,,5/4,5/4,
{16}5/4,,5/4,5/4,5/4,,5/4,5/4,5/4,,5/4,5/4,5/4,,5/4,5/4,
{16}6/3,,1/8,1/8,1/8,,1/8,1/8,1/8,,1/8,1/8,1/8,,1/8,1/8,
{16}1/8,,1/8,1/8,1/8,,1/8,1/8,1/8,,1/8,1/8,1/8,,1/8,1/8,
{16}2/7,,6/4,6/4,6/4,,6/4,6/4,6/4,,6/4,6/4,6/4,,6/4,6/4,
{16}6/4,,6/4,6/4,6/4,,6/4,6/4,6/4,,6/4,6/4,6/4,,6/4,6/4,
{16}7/3,,1/2,1/2,1/2,,1/2,1/2,1/2,,1/2,1/2,1/2,,1/2,1/2,
{16}1/2,,1/2,1/2,1/2,,1/2,1/2,1/2,,1/2,1/2,1/2,,1/2,1/2,
{16}8/3,,6/5,6/5,6/5,,6/5,6/5,6/5,,6/5,6/5,6/5,,6/5,6/5,
{16}6/5,,6/5,6/5,6/5,,6/5,6/5,6/5,,6/5,6/5,6/5,,6/5,6/5,
{16}7/4,,8/2,8/2,8/2,,8/2,8/2,8/2,,8/2,8/2,8/2,,8/2,8/2,
{16}8/2,,8/2,8/2,8/2,,8/2,8/2,8/2,,8/2,8/2,8/2,,8/2,8/2,
{16}1,1,1,1,1,1,1,1,1,1,1,1,1,1,1,1,
{16}1,1,1,1,1,1,1,1,1,1,1,1,1,1,1,1,
{16}1,1,1,1,1,1,1,1,1,1,1,1,1,1,1,1,
{16}1b,,8/2,8/2,8/2,,7/3,,5,5,5,5,5,,6/4,,5b,5b,5b,5b,5b,5b,5b,,6/4,6/4,6/4,,6/4,6/4
,6/4,,
{16}5,5,5,5,5,,6/4,,5,5,5,5,5,,6/4,,
{16}5,5,5,5,5,,6/4,,5,5,5,5,5,,6/4,,
{16}5,5,5,5,5,,6/4,,5,5,5,5,5,,6/4,,
{16}5,5,5,5,5,,6/4,,5,5,5,5,5,,7/3,,
{16}4,4,4,4,4,,3/5,,4,4,4,4,4,,3/5,,
{16}4,4,4,4,4,,3/5,,4,4,4,4,4,,3/5,,
{16}4,4,4,4,4,,3/5,,4,4,4,4,4,,3/5,,
{16}4,4,4,4,4,,3/5,,4,4,4,4,4,,6/2,,
{16}8,8,8,8,8,,7/1,,8,8,8,8,8,,7/1,,
{16}8,8,8,8,8,,7/1,,8,8,8,8,8,,7/1,,
{16}8,8,8,8,8,,7/1,,8,8,8,8,8,,7/1,,
{16}8,8,8,8,8,,7/1,,8,8,8,8,8,,6/2,,
{16}1b,1,1,1,1b,,8/2,,1b,1,1,1,1b,,8/2,,
{16}1b,1,1,1,1b,,8/2,,1b,1,1,1,1b,,8/2,,
{16}1b,1b,1b,1b,1b,1b,1b,1b,1b,1b,1b,1b,1b,1b,1b,1b,
{16}1b,,8/2,8/2,8/2,8/2,8/2,,1,1,1,1,{32}1,2,3,4,5,6,7,8,
{16}1s5[4:1],
