&title=ロストシティガール
&artist=55ymtk
&first=0.06
&des=fullower
&lv_5=13+
&inote_5=(132)
{8},,,,,,,,,,,,
{12}4h[6:1]/5h[12:5],,,,,,
{8},3/6,3/6,3h[8:1]/6h[12:4],,,
{12},4h[24:1],,,4h[24:7],,5,,,
{12}5h[6:1]/4h[12:5],,,,,,
{8},6/3,6/3,6h[8:1]/3h[12:4],,,
{12},5h[24:1],,,5h[24:7],,4,,,
{4}
4b,4h[2:1],3,3h[2:1],2,2h[2:1],1,1h[2:1],
5b,5h[2:1],6,6h[2:1],7,7h[2:1],8-4[8:1],8,
{24}
1b,,,8,,1,,,8,1,,8,1,,8,1,,,1/8,,,,,,
1,,8,2,,7,,,1,8,,2,7,,1,8,,,2/7,,,,,,
1,,,8,,1,,,8,1,,7,2,,6,3,,,3/6,,,,,,
1,,8,1,,8,2,,7,2,,7,3,,6,3,,6,4,,5,4h[8:1],,,
5b,,,4,,5,,,4,5,,4,5,,4,5,,,5/4,,,,,,
5,,4,6,,3,,,5,4,,6,3,,5,4,,,6/3,,,,,,
5,,,4,,5,,,4,5,,3,6,,2,7,,,7/2,,,,,,
5,,4,5,,4,6,,3,6,,3,7,,2,7,,2,8,,1,8,,,,,,
{24}
6h[8:1],,,5,,,5,,,4/7,,,4/7,,,8,7,6,5,,,6h[8:1],,,5,,,6,,,
5-1[8:1],,,4/6,,,7>3[8:1],,,6,,,5/7,,,,,,
4h[8:1],,,2h[8:1],,,4,,,1/3,,,1/3,,,4,3,2,1,,,
5/1,,,5/1,,,
{16}2,6,2,6,2<7[8:1],,2>5[8:1],,2,,2,,,,
{24}
6h[8:1],,,,5,,6,,,4/7,,,4/7,,,5h[8:1]/8,7,6,,,,6h[8:1],,,,,5,6,,,
5-1[8:1],,,4/6,,,7q3[8:1],,,6,,,5/7,,,,,,
3,,,3,,,,5,3,,,5,3,,,5,6,7,8,,,
{16}
4,,4,,6h[16:3],4,,2,4h[8:1],,1,,1,,1,,
{24}
8b,,,8,,,2,4,,,6,4,,,6,8h[8:1],,,,,
4,8,,5,1,,6,2,,7,3,,8,4,,,1/5,,,3/7,,2/6,,,
7,3,,7,3,,,1/8,,,3/4,,,6/7,,,1/3,,,4/8,,2/6,,,
1,4,,2,5,,3,6,,4,7,,5,8,,6,5,4,3,2
,1/8,,,,
8,5,,8,5,,7,4,,7,4,,6,3,,6,3,,,2/5,,1/4,,,
7,5,,1,3,,5,1,,7,5,,1,3,,5,1,8,7,6,5,4,,,
5,,3,5,,,3,,7,3,,,7,,1,7,,,1,,8w4[2:1],1,,,,,8b,,,,,,,,
,,,,,,,,,,,
{24}
1,8-4[8:1],,2,7,,1,8>4[3:1],,,,,,,,,,,,,,,,,
1,8-4[8:1],,2,7,,1,8>6[3:1],,,,,,,,,,,,,,,,,
1,8-4[8:1],,2,7,,1,8>8[2:1],,,,,,,,,,,,
8>4[4:1],,,8,,,4<8[4:1],,,4,,,8-4[4:1],,,,,,,,,,,,,,,,,
8,1-5[8:1],,7,2,,8,1<5[3:1],,,,,,,,,,,,,,,,,
8,1-5[8:1],,7,2,,8,1<3[3:1],,,,,,,,,,,,,,,,,
8,1-5[8:1],,7,2,,8,1<1[2:1],,,,,,,,,,,,,,,,,,,,,,,,
{16}
8/5,,7/6,,8/5,,7/6,8/5,,,7-2[8:1]/6-3[8:1],,6/7,,,,,,,,
{24}
4,,4,5,,5,3,,3,6,,6,4,,4,5,,,
{16}
6/3,,5/4,,6/3,,5/4,6/3,,,5-8[8:1]/4-1[8:1],,4/5,,,,,,,,
{24}
2,,2,3,,3,1,,1,4,,4,2,,2,3,,,
{16}
1/4,,2/3,,1/4,,2/3,1/4,,,2-7[8:1]/3-6[8:1],,3/2,,,,,,,,
{24}
5,,5,4,,4,6,,6,3,,3,5,,5,4,,,
{16}
3/4,,4/5,,5/6,,5/4,6/3,,,5-8[8:1]/4-1[8:1],,4/5,,,,,,,,
{24}
7,,7,6,,6,8,,8,5,,5,7,,7,6,,,
8q4[2:1],,,,,,,,,,,,,,,,,,,,,,,,
{24}
8b,,,1,,8,,,3,1,,2,8,,1,7,,,1/8,,,,,,
2,,2,7,,7,,,1,8,,2,7,,1,8,,3,6,,1,8,,,
1b,,,8,,1,,,6,8,,7,1,,8,2,,,3/6,,,,,,
1,,1,8,,8,2,,2,7,,7,3,,3,6,,6,4,,4,5,,5,
4h[8:1],,,,,,,,7,5,,6,4,,5,3,,,5/4,,,,,,
6,,6,3,,3,,,5,4,,6,3,,5,4,,7,2,,5,4,,,
5b,,,4,,5,,,2,4,,3,5,,4,6,,,7/2,,,,,,
5,,5,4,,4,6,,6,3,,3,7,,7,2,,2,8,,8,1,,1,
,,,
{16}
6,,6,5,6,,4/7,,4/7,,5h[8:1]/8,7,6,,
{24}6,,5,6,,5,6,,,
{16}
5-1[8:1],,4/6,,7>3[8:1],,6,,5/7,,,,
4h[8:1],,2,4,2,,1/3,,1/3,,1h[8:1]/4,3,2,,
{24}8,,3,8,,2,8,,,
{16}2<7[8:1],,2>5[8:1],,2-6[8:1],,2,,2,,,,
{16}
6,,6,5,6,,4/7,,4/7,,5h[8:1]/8,7,6,,
{24}6,,5,6,,5,6,,,
{16}
5-1[8:1],,4/6,,7-3[8:1],,6,,5/7,,,,
4,,2,4,2,,1/3,,1/3,,1h[8:1]/4,3,2,,3,5,3,,7,5,7,,5/6,,1/8,,3/4,,
{24}1/8,,,
{8}
1b>1[1:1],,,,,,,,,,,,,,
{16},2b-7[8:1]/3b-6[8:1],,
{24}
,,,,,,,,,,,,,,,,,,,,,,,,,,,,,,,,,,,,,,,,,,,,,
{8}
7b-2[8:1]/6b-3[8:1],,,,
{16},,,
{4}
1,1,8,8,1,1,
{8}
8,8,1,1,
{16}
8,1,8,1,8,1,8,1,8,1,2,3,4,5,6,7,
{24}8,,,,,
8,1-5[8:1],,7,2,,8,1<5[3:1],,,,,,,,,,,,,,,,,
8,1q4[2:1],,7,2,,8,1h[2:1],,,,,,,,,,,,,,,,,
8,1-5[8:1],,7,2,,8,1<1[2:1],,,,,,,,,,,,
1<5[4:1],,,1,,,5>1[4:1],,,5,,,1-5[4:1],,,,,,,,,,,,,,,,,
1,8-4[8:1],,2,7,,1,8>4[3:1],,,,,,,,,,,,,,,,,
1,8-4[8:1],,2,7,,1,8>6[3:1],,,,,,,,,,,,,,,,,
1,8-4[8:1],,2,7,,1,8>8[2:1],,,,,,,,,,,,,,,,,,,,,,,,
{16}
1/4,,2/3,,1/4,,2/3,1/4,,,2/3,,2h[8:1]/3h[8:1],,,,
{24}
1/4,8/5,7/6,,,,6,,6,4,,4,5,,5,3,,3,5,,5,4,,,
{16}
3/6,,4/5,,3/6,,4/5,3/6,,,4/5,,4h[8:1]/5h[8:1],,,,
{24}
3/6,2/7,1/8,,,,8,,8,6,,6,7,,7,5,,5,7,,7,6,,,
{16}
5/8,,6/7,,5/8,,6/7,5/8,,,6/7,,6h[8:1]/7h[8:1],,,,
{24}
8/5,1/4,2/3,,,,3,,3,5,,5,4,,4,6,,6,4,,4,5,,,
{16}
3/4,,4/5,,5/6,,4/5,3/6,,,4/5,,4h[8:1]/5h[8:1],,,,
{24}
3/6,2/7,1/8,,,,1,,1,3,,3,2,,2,4,,4,2,,2,3,,,
{24}
8>4[2:1],,,,,,,,,,,,,,,,,,,,,,,,
{24}
8b,,8,1,,1,,,6,3,,8,1,,5,4,,,8/1,,,,,,
8,,8,1,,1,,,7,2,,7,3,,7,4,,7,3,,7,2,,,
1b,,1,8,,8,,,3,6,,1,8,,4,5,,,1/8,,,,,,
4,,4,3,,3,2,,2,1,,1,8,,8,7,,7,6,,6,5,,5,
4b,,4,5,,5,,,2,7,,4,5,,1,8,,,4/5,,,,,,
4,,4,5,,5,,,3,6,,3,7,,3,8,,3,7,,3,6,,,
8bw4[3:5],,,,,,,,,,,,,,,,,,,,,,,,
E
