&title=ハレバレパレット
&artist=Palette Project
&first=0
&des=うすしお
&lv_4=11
&inote_4=(190){4},,,,{8}7,7,,,2,2,,,63,63,,54,{4},,
A6,E6,B5,B4,E4,A3,,2b,
54,2,54,7,54,2,2,21,45,7,54,2,45,7,7,78,
54,21,54,87,54,21,21,21,{8}4x/3x,4x/3x,,,6x/5x,6x/5x,,,{4}7v5[4:1],,,2,
5-1[2:1],,,,3,2,{8}1,8,8,,1,1,7,7,2,,8,8h[8:5],{4},2b,2b,,
5-8[2:1]/4-1[2:1],,,,52,54,74,54,{8}2,2,5,5,4,,7,7h[8:5],{4},1b,1b,,
2<7[2:1],,,,6q3[2:1],,,,2q7[2:1],,,,6>3[2:1],,,,
{8}2,2,5,5,,8x/7x,,6,,4,4,,,2x/1x,2x/1x,,
{4}71,82,61,83,4-1[2:1],,,,5h[2:3],,3h[1:1],,,,,2,
52,54,52,{8}81,81,,2-4[8:1],,,,6,6,,
5-7[8:1]/4-2[8:1],,,,8-6[8:1]/1-3[8:1],,,,
,54,54,,72,,72,,81,,63,,81,,,7v5[4:1]/2v4[4:1],,,,,,,C,,
12,,45,,78,,45,,,2,1,2,8,,81,,
{4}72,81,72,6h[4:1],8h[4:1],2h[4:1],4h[4:1],6,
1-4[8:1],,8-5[8:1],,,4<7[4:1]/3q8[4:1],,,
6hx[4:7]/3hx[2:1],,,{8},4x-1[4:1],,,,,,,,,
3,3,5,5,,4,4,,6,6,5,5-1[8:1],,,,,24,3,,,75,6,,,54,54,,63,,,,,
{4}A6,E6,B5,B4,E4,A3,,2b,
{16}7xh[16:3],,,1hx[16:3],,,3hx[8:9],,{4},,,,,2,
{16}2xh[16:3],,,8hx[16:3],,,6hx[8:9],,{4},,,,,7,
{16}7x,,,1x,,,6xh[8:9]/2xh[8:9],,{4},,,,,71,
65,7b/1b,43,8b/2b,7h[4:3]/3h[4:3],,,,
2-5[8:1],8,7-4[8:1],1,{8}2,2,,81,{4},63,54,32,81,76,{8}54,54,,72,{4},63,
8-5[8:1],2,1-4[8:1],7,{8}8,8,,71,{4},63,
4-1[2:1],,,,5-8[2:1],,,,4>1[2:1],,,,5<8[2:1],,,,2x/1x,,8x/7x,,6x<3[4:3],,,,,,,,,,,,
3-6[4:1],,,,7-2[4:1],,,,83,,61,,7h[2:1]/2h[2:1],,,,
E3,,B1,,E7,,B8,,37,,26,,1-4[4:1],,,,
6h[4:3],4,5,4,3h[4:3],5,4,5,6h[1:1],,3h[2:1],,,,63,72,
81,,B7/B2,,5v7[4:1]/4v2[4:1],,,,6h[2:3]/4h[2:3],,,,,,,7,
,8bx<5[8:3]/1bx>4[8:3],,,{8},,,72,,,54,,
5-7[8:1]/4-2[8:1],,,,8-6[8:1]/1-3[8:1],,,,
,54,54,,72,,72,,81,,63,,81,,,5v7[4:1]/4v2[4:1],,,,,,,C,,
54,,12,,54,,78,,,2,8,2,7,,71,,
{4}6h[4:1],8h[4:1],1h[4:1],2-5[8:1],,2x-5[8:1],,8,
1>3[8:1],,8<6[8:1],,,4<7[4:1]/3q8[4:1],,,2h[4:1],4,7h[4:1],5,4x-1[4:1],,,7,
{8}6,6,1,1,,8,2,8,3,3,5,5-1[8:1],,,,,24,3,,,75,6,,,54,54,,63,,,,,
{4}A6,E6,B5,B4,E4,A3,,2b,{8}25,43,,,74,65,,,54,54,,63,,,,,
3h[4:1],,1h[4:1],,8h[4:1],,6h[4:1],,4,4,5,5,,,,,
2,2,5,3,,,,,6h[8:1]/4h[8:1],,3h[8:1]/5h[8:1],,64,,72,72,,
6x/4x,6x/4x,5x/3x,5x/3x,,1x-5[2:1]b,,
