&title=Ordirehv
&artist=Feryquitous
&first=0
&des=Fat Tiger
&lv_5=13+
&inote_5=(191){1},
{16}6,,,,,,,,,,,,2,,,,
{16},,,,,,,,,,,,,,,,
{16}8,,,,,,,,,,,,4,,,,
{16},,,,,,,,,,,,,,,,
{16}3,,,,,,,,,,,,7,,,,
{16},,,,,,,,,,,,,,,,
{16}5,,,,,,,,,,,,1,,,,
{16},,,,,,,,,,,,,,,,
{16}8h[4:3],,,,,,,,,,,,3h[8:7],,,,
{16},,,,,,,,,,6,,,,,,
{16}2/8h[4:3],,,,,,,,,,,,5h[8:7],,,,
{16},,,,,,,,,,4,,,,,,
{16}2h[4:3]/6,,,,,,,,,,,,8h[8:7],,,,
{16},,,,,,,,,,6,,,,,,
{16}7/4h[4:3],,,,,,,,,,,,5h[8:7],,,,
{16},,,,,,,,,,8,,,,1,2,
{16}3,,,,6,,46,,,,7,,7h[4:1]/5,,,,
{16}1h[4:1],,,,4h[4:1],,,,5h[4:1],,,,7h[4:1],,,,
{16}2,,,,3,,35,,,,2,,2h[4:1]/4,,,,
{16}8h[4:1],,,,5h[4:1],,,,4h[4:1],,,,2h[4:1],,,,
{16}8<3[4:3],,,,2,,2,,,,1,,1,,,,
{16}2,,,,34,,,,54,,,,56,,,,
{16}1>6[4:3]/7,,,,8,,8,,,,7,,7,,,,
{16}8,,,,12,,12,,,,56,,,,,,
{16}8,,,2,1,,7,8,5,4,5,4,5,,,,
{16}7-4[8:1],,8,,7,,2,,2-4[8:1],,5-7[8:1],,2,,5,,
{16}2,,1,,78,,6,,45,,45,,27,,,,
{16}2-5[8:1],,1,,2,,7,,7-5[8:1],,4-2[8:1],,7,,4,,
{16}7,,8,,21,,3,,54,,54,,72,,,,
{16}3-8[8:1],,4,,3,,6,,6-8[8:1],,1-3[8:1],,6,,1,,
{16}6,,5,,34,,2,,81,,27,,63,,,,
{16}6-1[8:1],,5,,6,,3,,2-8[8:1],,7-5[8:1],,2,,7,,
{16}2,,4,,35,,26,,17,,38,,4qq1[8:4]/5pp8[8:4],,,,
{16}4b/5b,,,,,,,,,,,,7,,6,,
{16}5-1[8:1],,4,,5,,2,,3-8[8:1],,7-4[8:1],,3,,7,,
{16}2,,3,,46,,8,,75,,64,,35,,2,,
{16}1-5[8:1],,8,,1,,7,,6-1[8:1],,2-5[8:1],,6,,2,,
{16}8^3[8:1],,7,,6,,5^8[8:1],,4,,3,,2^5[8:1],,1,,
{16}8,,7^2[8:1],,6,,5,,4,,3,,12,,,,
{16}5^2[8:1],,6,,7,,8^5[8:1],,1,,2,,3^8[8:1],,4,,
{16}5,,6^3[8:1],,7,,8,,1,,2,,34,5,6,7,
{16}1h[4:3]/8,,,,,,,,,,,,3p2[4:3],,,,
{16},,,,,,,,,,,,,,,,
{16}1h[4:3],,,,,,,,,,,,{24}8,7p6[24:17],6q7[24:16],{16}5,,
{16},,,,,,,,,,,,,,,,
{16}5h[4:3],,,,,,,,,,,,6q7[4:3],,,,
{16},,,,,,,,,,,,,,,,
{16}8h[4:3],,,,,,,,,,,,{24}1,2q3[24:17],3p2[24:16],{16}4,,
{16},,,,,,,,,,,,,,,,
{16}5h[2:1]/8h[2:1],,,,,,,,,,,,3p2[4:3]/2q3[4:3],,,,
{16},,,,,,,,,,,,,,,,
{16}1h[24:12]/4h[24:12],,,,,,,,,,,,{24}8,7p6[24:17],6q7[24:16],{16}5,,
{16},,,,,,,,,,,,,,,,
{16}4h[2:1]/1h[2:1],,,,,,,,,,,,6q7[4:3]/7p6[4:3],,,,
{16},,,,,,,,,,,,,,,,
{16}8h[24:12]/5h[24:12],,,,,,,,,,,,{24}12,,,{16},,
{16}45,,45,,45,,45,,,,83,,2,1,2,1,
{16}2,,,,6,5,6,5,4h[8:1]/7h[8:1],,,6h[8:1]/3h[8:1],,,2h[8:1]/5h[8:1],,
{16},1,,,18,,,5/7,,,{24}6,5,4,{16}3,,,,
{16}48,,,,{24}3,4,5,6,7,8,{16}51,,,2h[8:1]/4h[8:1],,,3h[8:1]/5h[8:1],,
{16},6,,,57,,,31,,,{24}8,7,6,{16}5,,,,
{16}45,,,,3,4,3,4,5h[8:1]/2h[8:1],,,3h[8:1]/8h[8:1],,,1h[8:1]/6h[8:1],,
{16},27,,,8h[8:1]/5h[8:1],,,4h[8:1]/1h[8:1],,,{24}3,4,5,{16}6,,,,
{16}51,,,,{24}6,5,4,3,2,1,{16}48,,,6h[8:1]/1h[8:1],,,7h[8:1]/4h[8:1],,
{16},2h[8:1]/5h[8:1],,,3h[8:1]/8h[8:1],,,,{32}8,71,62,53,4,,,,{16},,,,
{24}7b/3b,6,5,4,3,2,1,8,7,{16},,2h[8:1]/5h[8:1],,,3h[8:1]/8h[8:1],,,1h[8:1]/6h[8:1],,
{16},27,,,4h[8:1]/7h[8:1],,,2h[8:1]/5h[8:1],,,{24}7,8,1,{16}2,,,,
{16}37,,,,{24}6,5,4,3,2,1,{16}48,,,6h[8:1]/1h[8:1],,,7h[8:1]/4h[8:1],,
{16},2h[8:1]/5h[8:1],,,3h[8:1]/8h[8:1],,,6h[8:1]/1h[8:1],,,{24}81,72,63,{16}5-1[32:3]/4-8[32:3],,,,
{16}4b/5b,,,,7,8,7,8,1h[8:1]/6h[8:1],,,7h[8:1]/4h[8:1],,,5h[8:1]/2h[8:1],,
{16},63,,,4h[8:1]/1h[8:1],,,8h[8:1]/5h[8:1],,,{24}7,8,1,{16}2,,,,
{16}15,,,,{24}2,1,8,7,6,5,{16}84,,,2h[8:1]/5h[8:1],,,3h[8:1]/8h[8:1],,
{16},61,,,74,,,1b,1b-5[8:1],8b,8b,,{16},,,,
{16}6,,6,,6,,3,4,2,,2,,,,,,
{16}78,,6,5,6,,2,1,2,1,2,,7,8,7,,
{16}16,,2,4,3,,6,5,6,5,6,,2,1,3,,
{16}28,,7,8,7,,4,5,4,5,4,,7,1,8,,
{16}27,,3,4,3,,6,7,8,1,2,3,4,5,6,7,
{16}81,,3,4,3,,7,8,7,8,7,,2,1,2,,
{16}83,,7,5,6,,3,4,3,4,3,,8,1,7,,
{16}28,,3,5,3,,7,8,7,8,7,,2,4,3,,
{16}46,,7,8,7,,16,,{32}2,3,4,5,6,7,8,1,2-6[8:1],3,4,5,6,7,8,1,
{16},,,,,,,,,,,,,,,,
{16},,{24}2bz6[32:9]/8bs4[32:9],37,46,{16}5,,,,,,,,,,,,
{16}34,,1,8,1,,6,5,6,5,7,,2,1,3,,
{16}25,,7,8,7,,3,4,3,4,2,,8,1,7,,
{16}46,,3,5,2,,7,8,7,6,7,,4,5,3,,
{16}17,,6,4,5,,2,3,2,1,2,,7,8,6,,
{16}3,4,3,4,3,,6,5,6,5,6,,1,5,2,6,
{16}3,7,4,8h[16:5],5h[16:4],,,,
{4},{32}8,7,6,5,4,3,2,1,
{16}8b/4b,,,,2,1,3,,6,5,7,4,8,1,8,,
{16}3,4,25,,6,5,47,,2,1,3,8,4,5,4,,
{16}27,,6,8,5,1,6,,3,4,2,5,1,8,1,,
{16}6,5,74,,3,4,52,,7,8,6,1,5,4,5,,
{16}27,,3,7,4,5,2,,7,1,5,3,{24}8,7,6,5,,,
{16}3,4,25,,7,8,16,,3,5,1,7,{24}2,3,4,5,,,
{16}72,,6,2,5,4,7,,2,8,4,6,{24}1,2,3,4,,,
{16}6,5,74,,2,1,38,,5,4,8,1,{24}72,,,,,,
{32}1b/5b-1[4:1],26,37,48,,,,,{16},,,,,,,,{24}1b,1b,1b,1b,,,
{16}45,,{32}28,3,4,5,{16}1,,{32}1,8,7,6,{16}2,,3,,4,5,3,6,
{16}2,,{32}71,6,5,4,{16}8,,{32}8,1,2,3,{16}7,,6,,5,4,7,2,
{16}5,,3,4,2-6[8:1],,8-4[8:1]/1,,2,,8,,2,,8,,
{16}1,6,5,6,5,6,8,4,3,4,3,4,1,6,5,6,
{16}7,6,8,4,3,4,5,4,{24}7,8,1,2,3,4,{16}5b/7b,,,,
{16}7b,3,4,2,5,3,1b,5,6,4,7,5,8b,4,5,2,
{16}7,3,4,1,6b,3,7,2,{24}8,1,8,1,8,1,8,,,,,,
{16}5b/3h[2:1],,,,,,,,,,,,6h[8:7],,,,
{16},,,,,,,,,,,,,,,,
{16}7/2h[4:2],,,,,,,,,,,,8h[8:7],,,,
{16},,,,,,,,,,,,,,,,
{16}7h[4:2]/3,,,,,,,,,,,,1h[8:7],,,,
{16},,,,,,,,,,,,,,,,
{16}2/5h[4:2],,,,,,,,,,,,4h[8:7],,,,
{16},,,,,,,,,,,,,,,,
{16}8h[4:2],,,,,,,,,,,,3h[8:7],,,,
{16},,,,,,,,,,,,,,,,
{16}7h[4:2],,,,,,,,,,,,1h[8:7],,,,
{16},,,,,,,,,,,,,,,,
{16}2h[4:2],,,,,,,,,,,,8h[8:7],,,,
{16},,,,,,,,,,,,,,,,
{16}4h[4:2],,,,,,,,,,,,7p4[8:8],,,,
{16},,,,,,,,,,,,{24}3,2,1,,
{16},,,,,,,,,,,,,,,,E
