&title=密命
&artist=HIMEHINA
&first=0
&des=純粋な酒
&lv_6=14+
&inote_6=(148)
{4}
,,,,
{4}
4h[4:1],3h[4:1],1,,3h[4:1],4h[4:1],2,,3h[4:1],5h[4:1],7,
{8}
1,8,1h[2:1],,8,,,,,,
{4}
4h[4:1],5h[4:1],6h[4:1],8h[4:1],1,7,3,5,5h[4:1],4h[4:1],2h[4:1],1h[4:1],
{4}
8h[4:4],3,4h[4:2],,
(162)
{4}
,,,,
{16}
,8<5[8:3],,,,,,,2z6[2:1],,,,,,,,
{64}
,,,8h[64:37],,,,,,,,,,,,,,,,,,,,,,,,,,,,,
{24}
7,6,5,4,3,2,1,8,7,6,5,4,
{16}
3b/7b,,8,1<6[8:1],,2/8,,1/3,,4qq2[16:3],,,,5,6,7,
{16}
8,,3,1>4[8:1],,2/8,,1/7pp5[8:3],,,2,,3,,4,,
{16}
3V16[16:3],,,6,,,5,,4V61[16:3],,,1,,,3,,
{16}
2V46[16:3],,,6,,,7,,8-5[8:1]*-3[8:1],,8,,8,,,,
{16}
2/6,,1,8>3[8:1],,1/7,,8/6,,5pp7[16:3],,,,4,3,2,
{16}
1,,6,8-4[8:1],,1/7,,2/8,,,61,,72,,83,,
{16}
1h[8:1]/4h[8:1],,,8h[8:1]/3h[8:1],,,7h[16:4]/2,,1,8,,6,
{16}
5h[8:1]/8h[8:1],,,4h[8:1]/7h[8:1],,,3p6[4:1]/6q3[4:1],,,,,,,,,,
{8}
4h[4:2]/5,,1,,,8,3/7,,6h[4:2]/5,,2,,,3,4/8,,
{8}
2h[4:2]/5,,3,,,1,3/8,,4/6h[4:2],,7,,
{16}
2,,5,4,3,,3,,
{8}
2h[4:1]/5,,3>8[16:3],,5/3,,6,,
{16}
7<4[8:1],,8,7,,1h[16:5],,,,,3,,2/4,,3,3,
{16}
5<8[16:3],,,4,5,,3,,4>1[16:3],,,1,4,,8,7,6b,,,,,,7,3,4-1[8:1]/8-5[8:1],,,,,,,,
{16}
3<7[16:3],,,7qq5[16:3],,,8,,,,1,,48,,3/7,,
{16}
2pp4[8:1]/6<2[16:3],,,,,,,,3,,8,,4,5,7,,4qq3[16:3]/8<5[8:1],,,,,,,,7,,17,,2,28,,,
{16}
1h[8:1]/4h[8:1],,,3h[8:1]/8h[8:1],,,2/7,,2pp4[8:1]/7-2[8:1],,,,,,,,
{16}
7V53[16:3],,,3-6[16:3],,,,,1,,1,,72,38,,,
{16}
1V73[4:1]/4-1[8:1],,,,,,,,8,,1,,2,4,5,,
{16}
3V57[4:1],,,,7-4[8:1],,8,,,,1,,8V24[8:1],,7,,
{4}
8bV64[8:1],8bV25[16:3],8bV62[16:3],8b,
{4}
3h[4:4],,8,,6h[4:4],,1,,4V25[4:2],,7,,6V85[4:2],,3,,
{32}
2b/5,3,4,,,,2b/7,3,4,,,,2bV48[16:3]/1,3,4,,,,,,,,,,,,,,,,,,
{32}
7b/1,6,5,,,,7b/2,6,5,,,,7b/3-1[8:1],6,5V73[16:3],,,,,,,,,,,,,,,,,,
{8}
8-3[8:1],4-7[8:1],8,4,
{16}
2-6[8:1],,,1,2V48[16:3],,8,,5b-1[8:1]*-7[8:1],,,,5b,,,,2b>5[8:1]/8b<5[8:1],,,,2b/8b,,,,
{16}
1h[4:2]/2,,2,3,,4,,4,5,,3/7,,2/8,,,,
{8}
1-4[8:1]/7,6,5-2[8:1]/1,6,5/7>2[8:1],,7/3,4,
{16}
5-1[8:1],,1,1,5>2[16:3],,7,,8/5,7,6,5,4/1,,,,
{8}
8-5[8:1]/2,3,4-7[8:1]/8,3,4/2<7[8:1],,2/6,5,
{16}
4-8[8:1],,8,8,4<7[16:3],,2,,1/4,2,3,4,5/8,,,,
{8}
1v4[8:1]/3,2,1v6[8:1]/7,8,1/3,2>5[8:1],5qq5[4:1],2,,8<5[8:1],1,8,
{8}
2-5[8:1],8-5[8:1],2b,8b,1>4[8:1],7<4[8:1],1b,7b,
{16}
3,,1/2,,1/8,,7,7,6/8b,,,4/5b,,,2b/3,,1b,8,1,8,2b,7,2,7,
{16}
1-4[8:1],,7,6,5-2[8:1],,6,7,8-4[8:1]/5,,,,1/8,,3,,2-5[8:1]/7,,1,8,2/7v4[8:1],,8,,
{24}
3/7,2,1,8,,,1/5,,,,,,
{16}
8-5[8:1],,2,3,4-7[8:1],,3,2,1-5[8:1]/4,,,,8/1,,6,,7-4[8:1]/2,,8,1,7/2v5[8:1],,1,,
{24}
6/2,7,8,1,,,8/4,,,,,,
{8}
1<6[8:1]/3<6[8:1],,1/3v6[8:1],,3/7,,8,1s5[4:1],,18,7,6,
{32}
2h[8:1],,,,8h[8:1],,,,2b,3,4,5,8b,7,6,5,
{32}
1h[8:1],,,,7h[8:1],,,,1b,2,3,4,7b,6,5,4,
{16}
1-5[8:1],,,,1,,6,7,4b/8,,,2/6b,,,4b/8,,1b>4[8:1]*<6[8:1],,,,1bw5[8:1],,,,1b,,,,
{16}
2/8,,3/7,,4h[8:3]/6b,,,1b,,,7b,,6h[8:3]/3b,,8,8b,,2,2b,,3v8[8:1]/7<4[8:1],,,,,,,,
{16}
1h[16:3],,,3h[16:3],,,5h[16:3],,,3h[16:3],,,1,,3,,5h[16:3],,,7h[16:3],,,1h[16:3],,,7h[16:3],,,5,,3,,1w5[4:2],,,,,,,,,,,,,,,,
(160)
{4}
2pp5[4:6],,,,
{16}
6,,,6,,,6,,,,,,,,,,
{4}
7qq3[4:4],,,,
{16}
2,,,2,,,2h[8:3],,,,4,,5,,6,,
{4}
7h[4:4],8,1,2,3h[4:2],4,5h[4:2],4,
{8}
3V14[4:4],,5V74[4:3],5,,,,,,,,,5,6,7,8,
{8}
2h[8:1],1,2h[8:1],8,2h[8:1],5,2h[8:1],6,7h[8:1],3,7h[8:1],5,7h[8:1],6,7h[8:1],4,
{8}
2h[8:1],5,2h[8:1],
{16}
6,6,2h[8:1],,5,,2h[8:1]/4,,3,,1/2,,8pp5[8:5],1,,,7/8,,,,,,5<4[8:6],,5,,,,,,
{4}
5,7,1,
{16}
3,4,3,4,2,5,2,5,1,6,1,6,8,7,8,7,1b,2,3,4,1,8,7,6,4,3,2,1,4,5,6,7,
(162)
{16}
1b,2,3,4,7b,8,1,2,5b,6,7,8,3b,4,5,6,
(162)
{16}
2-5[16:3]/7,,,5V38[16:3],,,8-4[16:3],,,,5,,6,,7V53[4:1],,,,2,,1,,8,,7V52[4:1],,,1,,,8,,7-5[16:3],,,5-1[16:3],,,3,,,,,,2/8,,
{16}
3,2,1h[8:1],,7,8,1h[8:1],,3,4,5h[8:1],,7,6,5,,,,
{16}
3/7,,2,1,5/8,7,6,5,4/7,3,2,1,
{64}
8/5,,,,,7,,,,,6,,,5,,,
{32}
4,3,2-5[8:1],,,,
{16}
6,,,8,,7-4[8:1],,,3,,,1,,
{16}
2,4,3,5,4,6,5,7,4,8,3,7,2,6,1,5,8,1,2,3,4/5,6,7,8,
{32}
1/2,3,4,5,6,7,8,1,2,3,4,5,6,7,8,1,
{4}
5,7,
{32}
1-5[8:1],,,,7,6,5,,1,,,,6,7,8,1,
{8}
2-6[8:1]/4,,3,1,5/7,
{16}
8>3[32:3],6,,,
{24}
8/5,6,7,4,5,6,7,8,1,2b/6b,,,,,,
{32}
8-4[8:1],,,,2,3,4,,8,,,,3,2,1,8,
{8}
7-3[8:1]/5,,6,8,4/2,
{16}
1<6[32:3],3,,,
{24}
1/4,3,2,5,4,3,2,1,8,7b/3b,,,,,,
{16}
1v4[8:1],,5,5,1v6[8:1],,5,5,1,,7s3[8:3],,5/8,,7,,,,4,,5,,4,,
{32}
8-5[8:1],,8,,2-5[8:1],,2,,8b,,,,2b,,,,7<4[8:1],,7,,1>4[8:1],,1,,7b,,,,1b,,,,
{16}
8-4[8:1],,,,8,,3,2,1b/5b,,,7b/8b,,,3b/4b,,1b,8,2,7,4b,5,3,6,
{24}
2-6[8:1],,,6,7,8,2>5[8:1],,,7,8,1,
{16}
2/4,,,,3,,2/5,,7/8,,1>4[32:3],8,2,,
{32}
1/5,6,7,8,5,6,7,8,1,2,3,4,5b/7b,,,,,,,,
{24}
6-2[8:1],,,2,3,4,6<1[8:1],,,3,4,5,
{16}
6/8,,,,7,,6/1,,3/4,,5<8[32:3],4,6,,
{32}
5/1,2,3,4,1,2,3,4,5,6,7,8,1b/3b,,,,,,,,
{16}
2/7,,3,4,1h[8:1],,6,5,8h[8:1],,3,5,1,,2-6[8:1]/7,,1-5[8:1],,2>5[8:1],,1,,2,,
{32}
7,,7,,1,,1,,7b,6,5,4,1b,2,3,4,8,,8,,2,,2,,8b,7,6,5,2b,3,4,5h[32:9],
{16}
1-5[8:1],,,,1,,4,3,2b/6b,,,4b/5b,,,2b/8b,,
{24}
1b,2,3,4,5,6,1b-5[8:1],8,7,6,5,4,1b,,,,,,
{16}
4/6,,2/8,,3b/4,,,6b/7,,,1b/2,,5/6b,,8,7b,,2,3b,,4b>1[8:1]/5b<8[8:1],,,,,,,,
{16}
3b/6b,,4,4,2b,2,8,8,1b/7,,,5/7b,,,2b/4,,1/8b,,3,2b/4,,6,5/7b,,
{32}
3/8,4,5,6,7,8,1,2,3/6,5,4,3,2,1,8,7,
{4}
3bV15[4:5]*V15[4:5]`6bV84[4:5],,,,,,,
{16}
1b,,2b,,
{16}
3V16[16:3],,,6-2[8:1],,,5,,4V61[16:3],,,1-5[8:1],,,3,,
{16}
2V46[16:3],,,6-3[8:1],,,7,,8<5[8:1]*>3[8:1],,8,,8,,,,
{16}
2/6,,1,8>3[8:1],,1/7,,8/6,,5pp7[16:3],,,,4,3,2,
{16}
1,,6,8-4[8:1],,1/7,,2-5[16:3]/8,,,6,,7,,8,,
{16}
1h[8:1]/4h[8:1],,,8h[8:1]/3h[8:1],,,7h[16:4]/2,,1,8,,6,
{16}
5h[8:1]/8h[8:1],,,3h[8:1]/6h[8:1],,,5h[16:10]/2h[16:6],,,,,,,,,,
{24}
2,3,4,5,6,7,
{32}
8/5,4,3,2,1,8,7,6,4bs8[4:7]`5bz1[4:7]*z1[4:7],,,,,,
