&title=Big Brother (dopam!ne Remix)
&artist=核P-MODEL/ど~ぱみん
&first=-1.085
&des=nzn
&lv_5=13+
&inote_5=(200){4},,,,5h[4:7],
{8}3,3h[4:1],,,1,1,
{2}1h[4:1],{4}2,3,
4h[4:7],{8}6,6h[4:1],,,8,8,
{2}8h[4:1],{4}7,{8}6,6b,
2-4[8:1],5,2-6[8:1],5,2-4[8:1],5,2,5,
{4}5-7[8:1],{8}5-1[8:1],3,3/5-7[8:1],3-1[8:1],5,3,
{4}8-4[8:1],{8}8-6[8:1],2,8-4[8:1],2,{4}8/2h[8:1],
{16}2-4[8:1],5,{8}2,{16}2-6[8:1],,,5,2-4[8:1],,,5,{8}2,7b,
7b-5[8:1],7b,7b-3[8:1],4,7-5[8:1],4,7,4,
{4}4-2[8:1],{8}4-8[8:1],6,6/4-2[8:1],6-8[8:1],4,6,
{4}1-5[8:1],{8}1-3[8:1],7,1-5[8:1],7,{4}1/7h[8:1],
{16}7-5[8:1],4,{8}7,{16}7-3[8:1],,,4,7-5[8:1],,,4,{8}7,2b,
{4}2h[2:1],{8}6,5,4-6[8:1],,,1,
{4}1h[2:1],6,{2}5-7[8:1],
{8}4h[8:1],6,4h[8:1],6,{4}4/6-8[8:1],4h[8:1],
4,3,{16}2,4,2,5,3,5,4,6,
{4}4-8[8:1],6,5-1[8:1],{8}3,3,
3-1[8:1],4,5-7[8:1],4,{4}3-7[8:1],3,
8-4[8:1],{8}1,2,{4}3h[4:1],{8}6-4[8:1],2,
{4}1-3[8:1],1,{16}5,2,5,3,6,3,7,4,
{4}7h[2:1],{8}3,4,5-3[8:1],,,8,
{4}8h[2:1],3,{2}4-2[8:1],
{8}5h[8:1],3,5h[8:1],3,{4}5/3-1[8:1],5h[8:1],
5,6,{16}7,5,7,4,6,4,5,3,
{4}5-1[8:1],3,4-8[8:1],{8}6,6,
6-8[8:1],5,4-2[8:1],5,{4}6-2[8:1],6,
1-5[8:1],{8}8,7,{4}6h[4:1],{8}3-5[8:1],7,
{4}8-6[8:1],8,{16}4,7,4,6,3,6,2,5,
{4}2h[4:3],B5,B7,B1,
3/B6,4/B7,5/B2,6/B3,
7h[4:1],C,{8}6/4,6/4,,,{4}7h[4:3],
B4,B2,B8,
6/B3,5/B2,4/B7,3/B6,
2h[4:1],C,{8}3/5,3/5,3/5pp4[2:1],3/5,
{1}5/3h[4:3],
{4}3-7[8:1],5-8[8:1]*-2[8:1],5,1w5[8:1],
1-3[8:1]*-7[8:1],1-5[8:1],1/5-1[8:1],A5f,
4-8[8:1],4-2[8:1]/5-1[8:1],5/4-8[8:1],4,
6-2[8:1],1-5[8:1]/6-8[8:1],1/6w2[8:1],6,
6-2[8:1],4-1[8:1]*-7[8:1],4,8w4[8:1],
8-6[8:1]*-2[8:1],8-4[8:1],8/4-8[8:1],A4f,
5-1[8:1],5-7[8:1]/4-8[8:1],4/5-1[8:1],5qq2[2:1]*pp8[2:1],
5b,{8},,,,1-5[8:1],1,
{1}1b/7h[4:7],
3h[4:3],
2h[4:5],
{2}6h[4:1],{16}3,5,3,5,3,5,3,5,
{1}3h[4:7],
7h[4:3],
7V58[2:1]/3V14[2:1],
{2}7h[4:1]/3h[4:1],{16}4,6,4,6,3,5,3,5,
{8}3h[2:1],,,7,7-5[8:1],,,3,
{4}3h[4:1],5,{2}5-3[8:1],
{8}1,5,1,7,{4}1-3[8:1],{8}7,6,
{4}5h[4:1],3,{16}3,5,3,6,4,6,3,5,
{4}3-1[8:1],5h[4:1],3-7[8:1],5h[4:1],
{8}1,2,3,4,5-7[8:1],,,3,
{4}3-1[8:1],{8}8,7,{4}6h[4:1],{8}2,3,
{4}4/6-8[8:1],{8}4,3,{16}2,4,2,4,3,5,3,5,
{8}3h[2:1],,,7,{2}7-3[8:1],
{4}2h[4:3],4,5,6,
{2}7-5[8:1]/1-3[8:1],{8}4-8[8:1],4,,,6h[2:1],
,,2,{2}2-6[8:1],
{4}7h[4:3],5,4,3,
{8}8-6[8:1],2-4[8:1],,,5-1[8:1],5,3-7[8:1],3,
{4}3b,{8},,,,8v5[8:1],8v3[8:1],
,,,1v6[8:1],{2}1v4[8:1],
{8}7,7V53[4:1],,,{2}2-6[8:1],
{4}8h[4:3],4,3,2,
{8}1-5[8:1],2,1/7-3[8:1],6,{4}7-5[8:1]*-1[8:1],7,
3v8[8:1]*v6[8:1],3,1v6[8:1]*v4[8:1],1,
{8}8,8V64[4:1],{4}2-4[8:1],2-6[8:1],2,
3h[8:1]/8-6[8:1],3h[8:1]/8-4[8:1],3h[8:1]/8-2[8:1],8/3h[8:1],
{8}8-4[8:1],7,8/2-6[8:1],3,{4}2-4[8:1]*-8[8:1],2,
6v1[8:1]*v3[8:1],6,8v3[8:1]*v5[8:1],8,
{8}1,1V35[4:1],{4}7-5[8:1],7-3[8:1],7,
6h[8:1]/1-3[8:1],6h[8:1]/1-5[8:1],6h[8:1]/1-7[8:1],1/6h[8:1],
6h[4:3],2,3,4,
{2}6-2[8:1],3-7[8:1],
{4}5<1[4:1],1V35[4:1],{2}5-1[8:1],
{4}3h[4:1],7,3h[4:1],5,
3h[4:3],7,6,5,
{2}3-7[8:1],6-2[8:1],
{4}4>8[4:1],8V64[4:1],{2}4-8[8:1],
6b/2b,{4}6bh[8:1]/2bh[8:1],8bh[8:1]/4bh[8:1],
8-4[8:1],8/1-5[8:1],1/7w3[8:1],7b,
1v4[8:1]/5v8[8:1],5-7[8:1]/1-3[8:1],1/5w1[8:1],5b,
4-2[8:1]*-6[8:1],4-8[8:1],4w8[8:1],4b,
{1}6h[4:3]/2h[4:3],
{8}3h[8:1],5,3h[8:1],5,6h[8:1],4,6h[8:1],4,
2h[8:1],6,2h[8:1],6,7h[8:1],3,7h[8:1],3,
{4}1-5[8:1],1/7-4[8:1],7/2w6[8:1],2,
8b-5[8:1]*-3[8:1],8b,{8}4,4,5b/3b,6b/2b,
{24}7bx/1bx-3[8:1],6,{12}5,{24},,6/1bx-5[8:1],5,{6}4,{24}8/1bx-3[8:1],7,{12}6,{24},,1bx/7,6,{6}5,
{24}1bx/7bx-5[8:1],2,{12}3,{24},,2/7bx-3[8:1],3,{6}4,{24}8/7bx-5[8:1],1,{12}2,{24},,7bx/1,2,{6}3,
{24}7/4bx-2[8:1],6,{12}5,{24},,7/4bx-8[8:1],6,{6}5,{24}8/4bx-2[8:1],7,{12}6,{24},,4bx/7,6,{6}5,
{24}8/1-5[8:1],7,{12}6,{24},,1b,2,{6}3,Ch[4:1],{24},,,,,{8}7/3,
{4}3-8[8:1]/7-4[8:1],7/3,1-4[8:1]/5-8[8:1],5/1,
7b-3b[8:1],{8}7b/1b,1b,{4}1b/Cf,5b/Cf,
{8}4/6-2[8:1],{24}4,6,4,{8}6,4,4b/8b,4b/8b-4[8:1],{4}8b/4qq8[1:1],
{1}A4f,
Cf/B6/E7/E6/E2/B2/E3,
E
