&title=Made In Love
&artist=黑魔
&des=えども~ん
&wholebpm=88
&first=0
&lv_1=2
&lv_2=5
&lv_3=8
&lv_4=11+
&lv_5=13
&inote_1=
(88)
{1},,
{1}1,2,3,4,5,6,7,8,1b,,
{2}2,2,3h[2:1],,4,4,5h[2:1],,
{4}6,6,6,,7,7,7,,8,8,1,1,1-5[1:1]/8,,,,,,,,
{1}4b,5,
{4}6,,6,6,5,5,4,4b,3,3,2,2,1,1,8,8,7,7,6h[8:3],,,,,,
{1}5-1[2:1],
{4}8,8,7,,6,6,5,,4,4,3,3,2,2,18,18,
{1}8b-4[2:1],5^8[2:1],1^4[2:1],5-1[2:1],
{4}8,,8,8,1,,1,1,2,,2,2,
{1}3h[2:1],3h[2:1],3h[2:1],3h[2:1],
{1}4-8[1:1],,1h[1:1],,2b/7b,,,
&inote_2=
(88)
{1},,{1}4h[2:1],3h[2:1],4h[2:1],5h[2:1],6h[2:1],7h[2:1],6h[2:1],5-1[2:1],8b,,
{4}1,1,12,,3,3,34,,5,5,56,,7,7,78,,1,1,8,8,7,7,6,6,5,5,4,
{1}4-8[1:1],,
{4}1b,{2}1h[4:1],2h[4:1],3h[4:1],4h[4:1],5h[4:1],
{8}6,6,6,,7,7,7,,8,8,8b,,
{8}1,1,1,1,1,1,1,,2,2,2,2,2,2,2,,3,3,4,4,5,5,5,5,
{1},,
{4}18,18,1b/8b,,27,27,2b/7b,,36,36,3b/6b,,45,45,4b/5b,,
{4}5b^8[4:1],,,1,2^5[4:1],,,6,7-3[3:1],,,2,1-5[3:1],,,,
{4}4h[4:1],,34,34,2h[4:1],,12,12,8h[4:1],,78,78,
{1}6h[8:7],6h[8:7],6h[8:7],6h[8:7],
{1}5-1[1:1],,1h[4:7]/8h[4:7],,1b/8b,{4},,,1b,,,,
&inote_3=
(88)
{1},,
{1}4>5[2:1],
{16}81,,,72,,,3h[8:3]/6h[8:3],,{2},
{8}4h[8:6],,,6h[8:3],,,,,5h[8:6],,,3h[8:3],,,,,
{1}5<4[2:1],
{16}81,,,72,,,3h[8:3]/6h[8:3],,{2},
{4}1h[2:1],,7h[2:1],,4pp7[2:1]*qq1[2:1],,,,1b,,,
{4}8,8,
{8}2,1,12,,8,7,56,4,3,,34,5,6,,4,5,3,6,2,7,18,,
{8}12,8,7,,78,1,2,,8,1,7,2,6,3,
{4}5>1[3:1]*<1[3:1],,,26,4V28[3:1]*V68[3:1],,,36,4qq1[2:1]/5pp8[2:1],,,,27,
{1}1>8[1:1]/8<1[1:1],,
{8}1b/8b,,7,2,45,36,2>7[3:1]/7,,,,,,4,35,26,{16}1pp4[3:1]/7,17,,,{8},,,
{16}5,5,,46,46,,5,5,3,3,,25,25,,5,4,
{16}6,3,7,2,{4}8,
{16}1,1,1,,8,8,8,,1,8,2,7,3,,,,5,5,5,,4,4,4,,5,4,6,3,7,,,,4,4,5,5,4,4,5,,{1}3<8[2:1]/6>1[2:1],
{8}5,5,4,4,45,45,36,36,27,27,1b/8b,,
{1}2pp6[2:1],7pp2[2:1],4>5[1:1]/5<4[1:1],
{4},,1b,1b,
{1}4bqq5[2:1]/6bpp5[2:1],3qq4[2:1]/5pp4[2:1],6pp4[2:1]/3qq5[2:1],
{8}6h[8:1],5,47,,3h[8:1],4,25,,
{8}45,45,36,36,2h[8:1],8h[8:1],1,,45,45,36,36,7h[8:1],1h[8:1],8,,
{8}27,27,36,36,4qq2[6:1]/5pp7[6:1],,,,
{1}1h[8:7]/8h[8:7],1h[8:7]/8h[8:7],1h[8:7]/8h[8:7],1h[8:7]/8h[8:7],
{8}2,,,,,5,6,7,{16}81,,,72,,,3h[8:3]/6h[8:3],,{2},
{1}4>5[4:3],,2h[4:7]/7h[4:7],,,
&inote_4=
(88)
{1},,
{8}4h[8:5]/6h[8:4],,,,,5h[8:1],3h[8:1],7h[8:1],{16}1h[16:3],,,7p4[3:1],,,3h[8:3],,{2},
{16}1,,5,5h[16:7],,4,3h[8:3],,,,,,8h[8:2],,,,1,,4,4h[16:9],,5,6h[8:3],,,,,,,,
{16}4,4,{8}5h[8:5]/3h[8:4],,,,,4h[8:1],6h[8:1],2h[8:1],{16}8h[16:3],,,2q5[3:1],,,6h[8:3],,{2},
{16}1,,5,5h[16:11],,,4,,3,,,,2,,,,{8}5<4[2:1]/1h[1:1],,,,,,,,{4}8b,,,
{4}8,8,
{16}3,4,3,4,25,,6,7,8,1,26,,
{16}4b/5b,,3,,24,,3,3,45,,6,,75,,6,6,45,,3,,2,1,3,8,4,7,5,6,1-4[8:1],,,,
{16}18,,7,,86,,7,7,18,,2,,31,,2,2,18,,7,2,6,3,5,4,6,3,7,2,1^4[12:1]/8^5[12:1],18,,,
{16}1b/8b,,,3,35,,6,,26,,1,,8-3[12:1]/7-4[12:1],,16,,
{16}8b/7b,,,6,64,,3,,73,,8,,1-6[12:1]/2-5[12:1],12,,,
{8},,4,6,2-5[12:1],,2/8>7[4:3],,4h[4:3],,,,,,,,8,8,8,8,8w4[12:1],8,8b,,
{8}3h[8:2]/6h[8:3],,,,{32}4,,3,5,3,,26,,{8}1^4[6:1]/7^4[6:1],,,,{16}8,8,37,,
{16}45,45,{32}3,6,3,6,{16}3,7,2,81,,2,1,83,4,5,36,,7,7,7,4,4,4,5,5,2,2,2,8,8,8,1,1,
{32}8,7,6,5,4,3,2,1,{4}8b,
{16}6,5,7,4,6,5,7,4,6,5,7,4,38,38,12,,
{16}3,4,2,5,3,4,2,5,3,4,2,5,16,16,78,,
{16}6,6,57,,3,3,24,,{32}1,8,1,8,1,8,1,8,1,8,1,8,
{2}1b,
{8},5,5,3,3,46,46,37,37,82,28,1b,,
{4}2^5[8:1]/5,8^5[8:1],1pp5[3:1],,7^4[8:1],1^4[8:1],8-4[8:1],,
{1}4qq1[2:1]/5pp8[2:1],{32}1,2,3,4,5,6,7,8,1,2,3,4,5,6,7,8,
{4}1bw5[8:1],1b,
{8}2b/6b,{32}4,5,4,5,{8}4pp4[6:1]*qq4[6:1],35,4b>8[6:1]*<8[6:1],,,,
{8}3b/7b,{32}5,4,5,4,{8}5pp5[6:1]*qq5[6:1],46,5b>1[6:1]*<1[6:1],,,,
{8}2b/6b,{32}4,5,4,5,{8}4pp4[6:1]*qq4[6:1],35,4b>8[6:1]*<8[6:1],,,,
{24}3,4,3,4,3,,6<4[3:1],5,6,5,6,,
{2},
{24}6b-4[12:1]/1b,,,2,,3,3-7[12:1],,,3,,,8w4[8:1],,,8,,,,,,,,,
{24}3b-5[12:1]/8b,,,7,,6,6-2[12:1],,,6,,,1w5[8:1],,,1,,,,,,,,,
{24}1b-5[12:1]/6b,,,7,,8,8-4[12:1],,,8,,,1bw5[12:1],,,,,,
{4}1b,
{1}2h[8:7]/8h[8:7],1h[8:7]/7h[8:7],3h[8:7]/8h[8:7],2h[8:7]/6h[8:7],
{8}4h[8:5]/6h[8:4],,,,,5h[8:1],3h[8:1],7h[8:1],{16}1h[16:3],,,6>8[3:1],,,2h[8:3],,{2},
{24}5,4,
{12}5,
{36}5,,,
{24}4,4,4,{24},6,5,6,
{32}5,,
{96},,,{24}3,4,3,{16}4,4,
{48}4,,,,5,,,,4,,,,5,,,,,,4,,,,,,,
{6}4,4,{96},{4},
{1}3bqq5[4:5]/6bpp4[4:5],{4},,,1b,
&inote_5=
(88)
{1},,
{8}3/5<1[8:2],4,3,2,,4h[8:1],3h[8:1],2,{16}8/1h[16:3],,7qq8[16:6],7,,,3h[8:3],,{2},
{16}1,,5,5>1[8:3],,4,6h[8:2],,,,,,8h[8:1],,,,8,,4,4<8[8:3],,5,3h[8:3],,,,,,,,
{16}4,4,{8}5/3>7[8:2],4,5,6,,5h[8:1],3h[8:1],7,{16}8h[16:3]/1,,3qq4[16:6],3,,,6h[8:3],,{2},
{16}1,,5<4[2:1],5,,,3,,4h[8:1],,,,5h[8:1],,,,{8}5h[4:7]/4,4,3,3,2,2,1,1,{32}8,1,2,,,,,,{4},,
{4}1-5[8:1],1,
{16}7,3h[16:1],4,2,81,,6,{32}2,8,{16}1w5[12:1],7,3,,{4}1b,
{16}72,,3,3,4/6-1[10:1],,8,,3-8[10:1]/6,,2,,5h[4:1]/3,,,,7,5,4,8,2,5,3,6,1-5[8:1],,5,,
{16}7h[8:1]/1,,,,84,,6,6,3-6[10:1]/5,,2,,7-2[10:1]/3,,8,,74,,{24}3,3,4,{16}2,4,5,7,4,5,2,7,
{16}1-5[12:1]/8-4[12:1],3h[16:1]/6h[16:1],,,
{16}1b/8b,,,3,3^8[8:1]/5,,8-4[8:1],,7h[8:1],,,,8^3[12:1]*^5[12:1],,26,,
{16}8,,,6,6^1[8:1]/4,,1-5[8:1],,3h[8:1],,,,1-4[12:1]*-6[12:1],1,,,
{8}1,,7<3[8:1]/3,62,1w5[12:1]/7,,1>8[4:3],,1/6h[1:1],,,,,,,,
{24}1,2,3,{24}7,6,5,{32}2,3,4,5,{32}8,7,6,5,{32}1-5[12:1],2,3,4,{32}15,8,7,6,
{4}1V75[8:1]/5V31[8:1],1b/5b,{8}3h[64:1],8h[64:1],
{32}46,,5,4,6>2[6:1],,8,,{4}1/7h[4:1],{16},,87,,1h[8:1],8,7,,6h[16:1]/2,3,
{32}5,4,5,4,{24}7,7,7,{16}3,18,,7h[16:2],8,1,8/2h[16:2],7,6,,
{32}6,5,7,,7,,4,5,3,,3,,26,,6,,1,8,2,,2,,7,8,6,,6,,35,,35,,3,5,4,6,3,7,2,8,{4}1b,
{32}56,,6,5,7h[16:1],,3,,5,4,6h[16:1],,2,,4,3,5h[16:1],,2,,16,,2,8,2,8,3,7,4,,,,
{32}34,,3,4,2h[16:1],,6,,4,5,3h[16:1],,7,,5,6,4h[16:1],,7,,83,,7,1,7,1,6,2,5,,,,
{16}45,45,36,36,27,27,1/8h[8:1],,
{32}1,8,2,7,1-5[12:1],8,2,7,1>8[8:7],8,2,7,
{8}1,,,,,,,,,4,4,4,4,4pp4[16:3]*qq4[16:3],4,,,
{4}5b,4qq5[3:1]/6pp5[3:1],46,,45,6pp4[3:1]/3qq5[3:1],63,,
{24}6,5,7,3,4,2,6,5,8,3,4,1,7,7,4,4,6,6,3,3,5,5,1,1,
{32}7,6,5,4,1,2,3,4,{40}8-4[12:1],7,6,5,4,8,1,2,3,4,{4}8>4[8:1]*<4[8:1],8w4[16:1],
{8}8b,{32}1-6[16:1]/5-2[16:1],62,73,84,{8}15,15,
{24}2,4,3,5,4,6,5-1[12:1],7,8,6,1,,
{8}3b/5b,{32}8-3[16:1]/4-7[16:1],73,62,51,{8}84,84,{24}7,5,6,4,5,3,4-8[12:1],2,1,3,8,,
{8}6b/4b,{32}1-6[16:1]/5-2[16:1],26,37,48,{8}15,15,{24}3,5,4,6,5,7,8^5[12:1],6,1,7,2,8,
{24}4b,3,2,1,8h[24:2],,5,6,7,8,1h[24:2],,
{40}3b,2,1,8,7,6,5,4,3,2,7,8,1,2,3,4,5,6,7,8,
{24}1b-5[12:1]/2b,,,3,,8,7^2[12:1]/1,,,6,,,5qq5[6:1]*pp5[6:1]/7,,,4,,,5,,,,,,
{24}8b-4[12:1]/4b,,,6,,1,2^5[12:1]/8,,,3,,,8pp8[6:1]*qq8[6:1]/2,,,7,,,8,,,,,,
{24}1b-5[12:1]/6b,,,7,,2,1^6[12:1]*^4[12:1]/3,,,2,,,1bw5[12:1],,,,,,
{4}1b<2[8:7],1b/6h[8:7],,,,8b>7[8:5]/2h[8:7],,,,1b<1[8:5]/8h[8:7],,,,1b<1[8:5]/8b>8[8:5],,,,
{8}6h[8:4],,,,,4h[8:1],5h[8:1],6h[8:1],{16}7h[16:3],,,3h[16:9],,,8h[8:3],,{2},
{36}6,4,6,
{12}4h[12:1],
{36}7,,,
{24}1,1,8h[24:2],{24},2,7,3,
{32}5h[32:3],,
{96},,,{24}3,6,4,{16}7,7,
{48}3h[48:4],,,,4h[48:4],,,,5h[48:4],,,,6h[48:6],,,,,,7h[48:7],,,,,,,
{6}8h[6:2],1h[6:1],{96},{4},
{1}3bqq5[8:5]/6bpp4[8:5],{32}7,6,5,4,8,7,6,5,1,8,7,6,2,3,4,5,1p5[12:1],2,3,4,8,1,2,3,{1}1b/4,
