&title=ネクラチューンサーカス
&artist=かいりきベア
&first=0
&des=こめいじキャリー
&clock_count=4
&lv_5=13+
&inote_5=(254)
{1},,
{16}E3,B3,B4,,6,,,,4,,6,,5,,3,,
,,E7,B6,B5,,4,,4,,,,5,,3,,
B5,B6,E7,,4,,,,5,,4,,5,,46,,
,,3,,E3,B2,B1,,7,,4,,6,,3,,
{8}Cf/2bx,,2bx/4,2bx/4,,5/7bx,5/7bx-3[8:1],,
1bx-5[8:1]/7,,1/7bx,,1/8z4[8:1],18,,,
35,,46,,7,5,7,5,8<5[8:1],,C,,4>1[8:1],,C,,
68,,17,,8,2,8,2,1x/2,,3/4x,,5x/6,,7/8x,,
16,,27,,3,8,3,8,4>1[8:1],,C,,8<5[8:1],,C,,
14,,25,,3,6,3,6,{12}B2,B3,B4,B8,B7,B6,E2,E3,E4,E8,E7,E6,
{8}3x-5[8:1],,7,7x-5[8:1],,1,1x,,
6x-4[8:1],,2,2x-4[8:1],,8,8x<4[4:1],,
{4}4x>8[4:1],8x<4[4:1],4x>8[4:1],8x,
4xh[4:3],,,,
35,25,5h[8:1]/3h[8:1],5h[8:1]/3h[8:1],
46,47,4h[8:1]/6h[8:1],4h[8:1]/6h[8:1],
35,46,5h[8:1]/3h[8:1],4h[8:1]/6h[8:1],
35,2-4[8:1]/6-8[8:1],,,
{8}2h[8:1],1h[8:1],2h[8:1],1h[8:1],3h[4:1],,7h[8:1],8h[8:1],
7h[8:1],8h[8:1],6h[4:1],,2h[8:1],1h[8:1],2h[8:1],1h[8:1],
3h[4:1],,7h[8:1],8h[8:1],7h[8:1],8h[8:1],6h[8:1],,
17,,2-8[8:1]/6-4[8:1],,,,,,
4/6x-8[8:1],,4,,3x,5,4,5,
4/6x-1[8:1],,4,,3x/5,,5,,
4/6x-8[8:1],,4,,3x,5,4,5,
4/6x,,3-8[8:1]/7-4[8:1],,,,,,
8/2x-4[8:1],,8,,7x,1,8,1,
8/2x-5[8:1],,8,,7x/1,,1,,
8/2x-4[8:1],,8,,7x,1,8,1,
8/2x,,37,,{6}E2/B1,E4/B3,B5/E6,
{8}7-5[8:1],,8,,1-3[8:1],,8,,
7-5[8:1],,8,8-4[8:1],,,,,
8V64-2[4:5]/2,,2,,1,,1,,
8,,8,8h[8:3],,,,,
2-4[8:1],,1,,8-6[8:1],,1,,
2-4[8:1],,1,1-5[8:1],,,,,
1V35-7[4:5]/7,,7,,8,,8,,
1,,1,1h[8:3],,,,,
1/7x,,3x/8,3/8x,,2/6x,2x/6,,
7h[8:1],2,7h[8:1],4,7h[8:1],3,{4}7<5[4:1],
5>3[4:1],3>1[4:1],1<7[4:1],7<7[4:3],
,,,4,4q5[4:2],,,,
,36,4-8[8:1]*-7[8:1]/5,,
1-5[8:1],7-4[8:1],2-5[8:1],8-4[8:1],
1-5[8:1],8-4[8:1],2h[4:2],,
7,{8}3,3,6,6,2,2,
{4}1x/7x,8x-3[8:1]*-5[8:1],8x,,
8-4[8:1],2-5[8:1],7-4[8:1],1-5[8:1],
8-4[8:1],1-5[8:1],7h[4:2],,
{8}3,3,5,,6,6,2,2,
,8x,2x,7x,1xbv6[8:1]*v4[8:1],,1x,,
2-5[8:1],,2,7v4[8:1],,7,1-5[8:1],,
1x/8x-4[8:1],,1xw5[8:1]/8x,,1x,,,,
6h[4:1],5,4h[4:1],5,6h[4:1],5,4h[8:1],5,
,7-1[8:1],3-5[8:1],7x,3x,,4x/8x,,
7-4[8:1],,7,2v5[8:1],,2,8-4[8:1],,
8x/1x-5[8:1],,8xw4[8:1]/1x,,8x,,,,
3h[4:1],4,5h[4:1],4,3h[4:1],4,5h[4:1],4,
{4}3b,6bv8[8:1]/4bqq2[8:1],4b/6b,,
2h[4:4]/7h[4:4],,,,
,1-5[8:1]/8-4[8:1],{16}1b/8b,Cf,,,{4},
6h[8:3],{16},,B4,E5,{6}E7/B6,E1/B8,E3/B2,
{8}3-1[8:1]/5,,4,,3/5-7[8:1],,4,,
3-1[8:1]/5,,4,4-8[8:1],,,,,
4>5[4:5]/6,,6,,8,,8,,
2,,4,4h[8:3],,,,,
6-8[8:1]/4,,5,,6/4-2[8:1],,5,,
6-8[8:1]/4,,5,5-1[8:1],,,,,
5<4[4:5]/3,,3,,1,,1,,
7,,5,5h[8:3],,,{16}4w8[63.5#32:1],E5,,,
{4},,,,
2x/6x,46,37,{12}7,5,7,
{4}5,35,26,{12}2,4,2,
{4}4,68,13,{12}8,1,8,
3x,4,3,6x,5,6,3x,4,3,6x,5,6,
2x,1,2,7x,8,7,1x,8,1,2x,3,4,
7x,8,7,2x,1,2,7x,8,7,2x,1,2,
{16}8x,1x,8x,1x,8x,1x,8x,1x,{4}Cf,,
(164)
{8}2x-5[8:1],2,7-3[8:1],7,1<6[8:1],1,4-8[8:1],4,
2,2,37,37,2>5[8:1]/6<1[8:1],15,26,,
8x>3[8:1],8,4-8[8:1],4,7-3[8:1],7,2-5[8:1],2,
6,6,27,27,1V36[8:5]*V74[8:5],,,,
(254)
{1},
{8}7h[4:3],,B8,B7,B6,B5,B4,,
2h[4:3],,E2,E3,E4,E5,E6,,
4x/7x,8,1,2x/5x,1,8,2x/7x,27,
3x/6x,3-8[8:1]/6-1[8:1],,,,,,,
{1}6h[4:8],
{4}E4,E3,C,,
8-3[8:1],,8-5[8:1]*-6[8:1],,
8w4[8:1],,2v5[8:1]/6v1[8:1],26,
7-5[8:1],8-4[8:1],1-5[8:1],2-4[8:1],
1-5[8:1],8-4[8:1],7h[4:1],,
27,{8}5,5,3,3,7,7,
{4}28,1>4[8:1]*<6b[8:1],1,,
2-4[8:1],1-5[8:1],8-4[8:1],7-5[8:1],
8-4[8:1],1-5[8:1],2h[4:1],,
{8}26,6,4,,3,3,7,7,
,1,7,2,8bpp2b[8:1]*qq6[8:1],,8,,
1/7p3[8:1],,27,2-5[8:1],,28,8-4[8:1],,
8/1-5[8:1],,8w4[8:1]/1,,8,,,,
2h[4:1],4,6h[4:1],4,2h[4:1],4,6h[8:1],4,
,2-5[8:1],6-1[8:1],2x,6x,,8x/4x,,
8/2q6[8:1],,27,7-4[8:1],,17,1-5[8:1],,
1/8-4[8:1],,1w5[8:1]/8,,1,,,,
7h[4:1],5,3h[4:1],5,7h[4:1],5,3h[4:1],5,
7b,,2bpp4b[8:1]/7bv1b[8:1],,2b/7b,,,,
8b,,46,1b,,35,8b<5b[8:1],,
8>3b[8:1],,8,,{32}E6,E7,E8,E1,E2,E3,E4,E5,D6,D7,D8,D1,D2,D3,D4,D5,
{8}Cf,,4x/5x,,3,2,6,5,
,{16}2,3,4,,6,,6h[4:1],,,,5,,6,,
4,5,4,,45,,,,6,,7,,2,,3,,
,,4,,7,6,5,,3,,4,,3,,5,,
3,2,1,,18,,,,8,,7,,2,,2,,
,,7,6,5,,3,,3h[4:1],,,,4,,3,,
5,4,{8}5,54,,2,1,7,6,
,4,5,3,7,7,3-5[8:1],3,
,6,3,7,1,1,7-4[8:1],7,
,3,6,6,2,2,5,5,
{16}2,4,2,,7,5,7,,1,8,1s5[8:1],8,1,,1bx/8,,
E
