&title=忌可視の鏡鯨
&artist=usb_nk
&first=0.07
&des=忌可視の鉴
&lv_5=14.3
&inote_5=(200)
{4}5h[2:1]/3V16<4b[4:13],,,,,,,,Ch[1:2],,,,,,,,
{16}1h[16:6],,,,,,5h[16:6],,,,,,3h[16:4],,,,7h[16:6],,,,,,2h[16:4],,,,5,3,7,,8h[16:2],,2h[16:6],,,,,,7h[16:6],,,,,,4h[16:4],,,,6h[16:6],,,,,,1h[16:4],,,,7,2,5,,,,
{24}6hx[16:6],A2,D3,A3,D4,A4,D5,A5,D6,D7,A7,D8,
{16},,,,3,,,,2h[16:4]/1h[16:6],,,,,,2,,,,7,3,5,,4,,7h[16:4]/8h[16:6],,,,,,6,,,,,,12,,,,3h[16:6]/4h[16:4],,,,,,6,,,,1,7,3,,6,,3h[8:3],,4,,5,,6,,7h[8:3],,8,,1,,2,6,4,,8,,3,,1,7,3,,6,,1,,5,,3,4,2,5,1,,7,8,6,1,5,,8,,4,,7>4b[2:1]/3<8[2:1],,,,,,,,,,,,,,,,
{24}4hx[4:1],A7,D7,A6,D6,A5,D5,D4,A3,D3,A2,D2,
{8},,8,,B7,,,,
{32}2x,3,4hx[32:14],,,,,,,,,,,,,,6x,7,8hx[32:14],,,,,,,,,,,,,,3x,2,1hx[32:14],,,,,,,,,,,,,,6x,5,4hx[32:14],,,,,,,,,,,,,,2x,1,8hx[32:14],,,,,,,,,,,,,,
{16}7-3[8:1],,,,,,6,,,,,,5-1[8:1],,,,5/2-6[8:1],,,,,,3,,,,5,5,5-1[8:1],,6,,7-3[8:1]/5,,,,,,8,,,,,,1-5[8:1],,,,1/3-7[8:1],,,,,,2,,,,8,8x,8x,B8f,,,
{24}7hx[4:1],A2,D2,A1,D1,A8,D8,D7,A6,D6,A5,D5,,,,,,,
{8}3,,B3,,,,
{32}8x,7,6h[32:6]/5hx[32:6],,,,,,,,,,,,,,2x,3,4h[32:6]/5hx[32:6],,,,,,,,,,,,,,1x,2,3h[32:6]/4hx[32:6],,,,,,,,,,,,,,7x,6,5h[32:6]/4hx[32:6],,,,,,,,,,,,,,8x,7,6h[32:6]/5hx[32:6],,,,,,,,,,,,,,
{16}8-3[8:1],,,,,,7,,,,,,6-1[8:1],,,,4-7[8:1]/6,,,,,,3,,,,E2,E1,E8,E7,E6,E5,
{16}7x,3x,8,2,1,3,8,4,7,5,6,4,5,3,6,2,7,1,5,3,8,2,5,3,7-3[8:1],,,,5h[4:1]/7,,,,
{16}1bx,,,,8b-4b[8:1],,3,,2b-6b[8:1]/8b,,2x,2x,,,7,,8bx^5b[8:1],,8x,8x,1b-5b[8:1],,2,,6b/1b,,,7b-3b[8:1],,,4b-8b[8:1],,,,5,,6b-2b[8:1],,1,,4b^1b[8:1]/6b,,3,,4b/7b-3b[8:1],,6,,1bx-5b[8:1]/7b,,1x,1x,6b-2b[8:1],,7,,6b/3b,,,4b-8b[8:1],,,1,,
{16}6^8-5-1-6[4:5],,,,,,4h[4:1],,,,,,4,,,,3h[4:1],,,,,,3,,,,B2,B6,C,,,5,3x-8^1-4[4:4],,,,,,7h[16:4],,,,,,7,,,,6h[16:4],,,,,,6,,5x,5,5-1[8:1],5,5,5,5,,,,
{16}2,,8b-4b[8:1]/3b,,7,,2b^5b[8:1]/8b,,1,,,,6,,8bx-4b[8:1],,8x,8x,3b-7b[8:1],,2,,3b/5b,,,6b-2b[8:1],,,4b-8b[8:1],,,,1,,7b^4b[8:1],,1,,2b-6b[8:1]/7b,,3,,2b/8b-4b[8:1],,7,,1bx-5b[8:1]/8bx,,1x,1x,6b-2b[8:1],,7,,3b/6b,,,4b-8b[8:1],,,5b,,
{32}6x>7[4:7],B6f,,,,,,,
{4},,,,,5,,4w8[2:3],,,,,,,,
{24}7hx[2:1],A2f,D2,A1,D1,A8,D8,D7,A6,D6,A5,D5,
{8},,3,,2-5[8:1]/7,,2/6^1[8:1],,,4,3-8[8:1],,3/7-4[8:1],,1^4[8:1],,,6,8-5[8:1],,4-1[8:1]/8,,4/6^1[8:1],,2,3,4,5,
{16}1,,,5,4h[16:2],,7,,,3,2h[8:1],,6,,2,,8,,,8,7h[8:1],,3,,,6,5h[8:1],,2,,6,,8,,,2,3h[8:1],,7,,,4,5h[8:1],,8,,4,,2,,,6,7h[8:1],,3h[8:1],,,37,,26,,15,,48,
{24}A2,D3,A3,D4,A4,D5,A5,D6,A6,D7,A7,,
{16},1,2b^5[8:1],,7,,2b-6[8:1],,8b,,1b/2b,8,7,,7^4[8:1],,,3,2,,8b-4[8:1],,6b,,1b/8b,,,2,3,,5^8[8:1],,,3,4,,4b-8[8:1],,6b,,4b/5b,,,6b-2[8:1],5,,4b,,,3b-7[8:1],4,,8b,,6b,,
{16}5b^8[8:1],,,3,5,,2,,1-5[8:1],,2,,1,7,6,,4b^1[8:1],,3,5,,,6,7,8b-4[8:1],,,,28,,3,,2b,1,3,8,4,,6b,5,7,4,8,,5,,1,,2<6p6b[4:3]/6>2p2[4:3],,,,
{4},,,,
{16}7,,,,1^4[8:1]/8,,2,,17,,,,6-1b[8:1],,,,64,,3,,2,8,3,7,4,6,2,8,5-1b[8:1],,,,5,,3-7b[8:1],,,,3,,8-4b[8:1],,1,,2/8^3[8:1],,,,8,,6-2b[8:1],,,,6,,4-8b[8:1],,3,,
{16}4^7[8:1]/6,,,,4,,2-6b[8:1],,,,2,,8-4b[8:1],,1,,8^5[8:1]/2,,,,8,,3-7b[8:1],,,,3,,5-1b[8:1],,6,,3/5^8[8:1],,,,5,,2-6b[8:1],,,,2,,5,,,,
{16}8x,1x,4x,5x,1x,2,5x,6x,2x,3x,6x,7x,3x,4x,7x,8x,
{8}1-5b[8:1]/5,,1b/8-4b[8:1],,8b/7-3b[8:1],,6-2b[8:1]/7b,,6b/5-1b[8:1],,4/5b,,
{16}3,7,4,8,5,1,4,7,2b-6b[8:1],,,,2,,8-4b[8:1],,,,8,,3-7b[8:1],,,,3/5b-2b[8:1],,5b-8b[8:1],,,6b,,,1b-4b[8:1],,,1b-6b[8:1],,,,,
{16}3,,3b>7b[8:1],,,,7,6,5,4,3,,48,15,26,37,8,,8b<4b[8:1],,,,4,3,2,1,8,,15,26,37,48,
{16}5bx,1,4,8,3,,6bx,2,7,3,8,,1bx,5,2,6,
{48}3x,7x,,2,6,,1,5,,8,4,,7,,,6,,,5,,,4x,,,
{72}3,,,2,,,1,,,8,,,7,,,6,,,
{96}5x,,,4,,,3,,,2,,,1,,,8,,,7,,,6,,,5<8q1[4:27],Cf,,,,,,,,,,,,,,,,,,,,,,,
{4},,,,,,,,,,,,,,,5^2[4:5],,,,,,,,,,,,Ch[1:1],,,,,
{4}4h[2:1]/6V83>5b[4:13],,,,,,,Ch[1:2],,,,,,,,
{16}6h[16:6],,,,,,2h[16:6],,,,,,8h[16:4],,,,4h[8:3],,,,,,7h[8:2],,,,3,5,1,,7,,2,8,3,7,4,6,3,5,2,6,1,7,4,6,2,7,
{16}1,8,7,6,5x,4,3,2,1x-5[8:1],8,7,6,5,
