&title=Time Pavement[SD]
&artist=松岡由貴
&first=0.075
&lv_5=11
&des=OMG
&inote_5=
(103){4},{1},,{4}1pp3[4:1],
,8qq6[4:1],
,2>4[4:1],,7<5[4:1],
,4qq2[4:1],,5pp7[4:1],
,3>8[4:1],,6<1[4:1],
,4,5,6,
7,8qq4[2:1],,,,5,
4,3,
{1}2<4[2:1],
{4},4s8[8:3],,,,1>4[4:1],
4<7[4:1],7>2[4:1],
{8}5,5z1[8:3],,,,,,8/2,
7/3,4qq1[4:3]/6-1[8:1],{2},{4}8-4[8:1],
,2,5/3,6/4,
7/5,6h[2:1]/8>5[2:1],,,,7,
6/4,5/3,
{1}4/2<4[2:1],
{4},1p6[2:1]*q4[2:1],{8},,,,,,,4/6,
,5,3,7,
2,6,{4}4b<4[2:3]*>4[2:3],,,,,,,,1-5[8:1],
,8v3[8:1]*v5[8:1],
,1s5[2:1]*z5[2:1],,,,8-4[8:1],
{8}8,8qq5[2:1]*pp3[2:1],{1},{4}5/3,
6/4,5-8[8:1]*v2[8:1],,4-1[8:1]*-8[8:1],
,5s1[4:1]*z1[4:1],{8},,,2,
1<4[2:1],8,{4}7h[4:3],,,,4,
3,2,
1,8z4[8:1],,1-6[8:1]*-4[8:1],
,8q2[2:1]*p6[2:1],,,,1-5[8:1],
{8}1,1qq5[2:1]*pp5[2:1],{1},{8}6,
5,
4,3,{4}7h[4:3]/2b<3[2:1],,,,{8}8>2[8:1],
2>4[8:1],4<6[8:1],6<8[8:1],{4}8,
{8}5w1[1:1],5,{2},,,{4}2h[4:1]/7h[4:1],
,6h[8:13]/4h[8:1],3h[8:1],2h[8:1],
1h[8:1],2h[8:1],3h[8:1],4h[8:1],
4/6,{8}3h[8:1],5h[8:1],2h[8:1],4h[8:1],1h[8:1],7h[8:1],
2h[8:1],5h[8:1],4h[8:1],6h[8:1],3h[8:1],8,{4}2h[4:1]/7h[4:1],
,{8}6h[8:1],4h[8:1],7h[8:1],5h[8:1],8h[8:1],2h[8:1],
7h[8:1],4h[8:1],5h[8:1],3h[8:1],6h[8:1],1h[8:1],{4}8p3[4:1]*q5[4:1],
{2},{8}3,5,4,6,
3,7,{4}2pp4[4:1],,{8}7,6,
5,4,{4}3,{8}5,4,6,3,
7,2,{4}6>3[2:1],{8},1,1,8,
8,1,6,5,4,3h[2:1],{2},{4}8<5[4:1],
5>2[4:1],2<7[4:1],
{8}4,4z8[8:3],,,,,,1/7,
2/6,3/5,{4}4h[4:1],,5q3[4:1]*p7[4:1],
{2},{8}8,2,7,1,
6,2,{4}7qq5[4:1],,{8}2,3,
4,5,{4}6,{8}1,8,2,7,
3,6,{4}2<7[2:1],{8},5,5,4,
4,5,3,4,5,6h[8:5],{2},{4}5-1[8:1],
,{8}2/8,3/7,
4/6,5,{4}5b>5[4:5]*<5[4:5],,,,,,,,8qq8[4:1]*-2[8:1],
,4-6[8:1]*qq4[4:1],
,1-5[8:1],{2}1qq1[4:1]*pp1[4:1],
{4},7v4[8:1],{8}7,2v5[8:1],,2,
{1}7pp2[4:3],
{4},2h[4:1]/4>1[8:1],,7h[4:1]/5<8[8:1],
,4V68[4:1]*V28[4:1],{8},,,7,
8,1,{4}2h[2:1]/7b>5[2:1],,,,5,
6,7,
8,1q7[4:1]*>4[8:1],,5q3[4:1]*<8[8:1],
,8-4[8:1],{2}8p2[4:1]*q6[4:1],
{4},2>5[8:1],{8}2,7<4[8:1],,7,
{4}2qq7[2:1],{2},{8}6,5,
4,3,{4}2/7>6[2:1],,,,{8}1<7[8:1],
7<5[8:1],5>3[8:1],3>1[8:1],{4}1,
{8}4,4w8[8:9],{2},,,{4}2h[4:1]/7h[4:1],
,3h[8:11]/4h[8:1],5h[8:1],6h[8:1],
7h[8:1],8h[8:1],1h[8:1],2h[4:1]/7h[4:1],
,{8}6h[8:1],5h[8:1],7h[8:1],3h[8:1],8h[8:1],1h[8:1],
6h[8:1],2h[8:1],4h[8:1],3h[8:1],6h[8:1],2h[8:1],{4}8-4[8:1],
,{8}3h[8:1],4h[8:1],2h[8:1],6h[8:1],1h[8:1],8h[8:1],
3h[8:1],7h[8:1],5h[8:1],6h[8:1],4h[8:1],7h[8:1],4,7/4,
3/6,5/2,{4}6/1>4[8:1],{8}7,8,{4}4/1<6[8:1],
{8}3,2,{4}1q5[8:1]/5q1[8:1],5>1[4:1]/1<5[4:1],5/1,
,1/7,{8}2/6,5/3,,4bw8[4:1],
,,,,,{16}3,5,4,6,5,7,
{4}1,2/7<4[8:1],{8}8,1,{4}7/2>5[8:1],
{8}1,8,{4}5>2[8:1]/7p3[8:1],{8},,,8/1,
7/2,6/3,{4}4pp1[8:3]/5qq8[8:3],{2},{8}2h[8:1],
{16}7,3h[16:3],{8}5,5,{16}2,6,3,7,2,8,3,5,
{4}4h[8:1],3/8-5[8:1],{8}2,1,{4}5/8-3[8:1],
{8}6,7,{4}8p4[8:1]/4p8[8:1],8>4[4:1]/4<8[4:1],8/4,
,8/2,{8}3/7,6/4,,5bw1[4:1],
,,,,,{16}7,3,6,2,5,1,
{4}4pp1[2:1]/8pp5[2:1],8/4,{8},,,6,
5,4,3,3/7,2-5[8:1]/8-5[8:1],5w1[4:1],{4}8/2,
,6h[8:11]/5h[8:1],4h[8:1],3h[8:1],
2h[8:1],1h[8:1],2h[8:1],4h[4:1]/5h[4:1],
,3h[2:3]/4h[8:1],5h[8:1],6h[8:1],
7h[8:1],8h[8:1],7h[8:1],{8}6,5,
4,3,2h[8:1],4h[8:1],3h[8:1],6h[8:1],1h[8:1],8h[8:1],
4h[8:1],7h[8:1],5h[8:1],6h[8:1],3h[8:1],7,{4}8h[4:1]/1h[4:1],
,{8}7h[8:1],5h[8:1],6h[8:1],3h[8:1],8h[8:1],1h[8:1],
5h[8:1],2h[8:1],4h[8:1],3h[8:1],5h[8:1],2h[8:1],6h[8:1],2,
1,8,{4}7bpp2[4:3],
E
