&title=散財讃歌
&artist=Adeliae
&first=-0.46
&des=Luner
&lv_5=13+
&inote_5=(138)
{1},
{16},,,,
,,,,
,,,,
,,,,
,,,,
,,,,
,,,,
,4,5,4,
5,2,4,3^5[12:1],
4,2,,,
,7,5,6^4[12:1],
5,7,,,
,2,4,3,
5,4,6,5,
7,5,6,4-8[12:1],
5,3,,,
,2,1,3^6[12:1],
4,2,,,
,7,8,6^3[12:1],
5,7,,,
,2,4,3,
5,4,6,5,
7,6,8,7,
1,8,,,
Ch[4:1],,,,
8-5[8:1],,,,
E4,,,,
8-5[8:1],,,,
E4,,,,
8-5[8:1],,,,
E4,,,,
8-5[8:1],,,,
E4,,,,
8-5[8:1],,,,
E4,,,,
8-5[8:1],,,,
E4,,,,
8xz4b[8:2]/1xs5b[8:2],,,,
,,,,
,,,,
2^5[8:1]/4,,,,
26,,,8,
7^4[8:1],,1,,
37,,1x,2x,
3x-8[8:1],,4,,
35,,7,6,
5-2[8:1]*-8[8:1],,3,,
5,,,,
7^4[8:1]/1,,,,
73,,,1,
3^6[8:1],,2,,
3/7s3[8:2],,,,
,,,,
,,E7,,
,C,,E3,
,,,,
2xbv5b[12:1]/8xbv5b[12:1],,,,
,,,{32}D8,E7,
{16}D6,{32}E1,C,{16}E5,{32}D2,E3,
{16}D4,,
3xb-7b[12:1]/6xb-4b[12:1],,,,
,,,{32}D8,E7,{16}D6,{32}E1,C,{16}E5,{32}D2,E3,
{16}D4,,
4xbv7b[12:1]*v1b[12:1],,,,
,,,{32}D8,E7,{16}D6,{32}E1,C,{16}E5,{32}D2,E3,
{16}D4,,
2xb-6b[12:1]/5xb-3b[12:1],,,,
,,,E3f,
,C,,E7f/B7,
,C,,,
7xb^4[12:1],,8v3[12:1],,
,,,5xw1[8:1],
,46,,5,
,,,,
7xb^4b[12:1],,8v3b[12:1],,
,,,4xw8b[8:1],
,62,,4,
,,,,
2x>6[8:1]/6x<2[8:1],,,,
,,,,
6xV42[8:1]/2xV86[8:1],,,,
,,,,
1,5,3x,7,
5,1,3,7,
1x-5b[12:1],,,,
,,,,
6-8[8:1]/5-2[8:1],,,,
56,,,,
3-1[8:1]/4-7[8:1],,,,
34,,,,
8^5[8:1],,2,,
8-4[8:1],1,,1,
8,,,,
2-5[8:1],,1,,
7-2[8:1],,6,,
4-7[8:1],,3,,
4-1[8:1],,3,,
4<2[4:1],,6,,
C,,,,
3,,4,5,
4,5,,,
3,4,,4,
2-4[12:1],1,2-6[8:1],,
2x-8[12:1],,,,
,,,,
6,5,,5,
7-5[12:1],8,7-3[8:1],,
7x-1[12:1],,,,
,,,,
3^8[8:1],4,,4,
3,,5,,
6^1[8:1],5,,5,
6,,4,,
3,,2,4,
3,3,7x,6x,
5x,6x,5x,4x,
5xh[4:1],,,,
,,,,
4,7,5,6^4[12:1],
5,7,,,
,2,4,3^5[12:1],
4,2,,,
,7,5,6,
4,5,3,4,
2,4,3,5-1[12:1],
4,6,,,
,7,8,6^3[12:1],
5,7,,,
,2,1,3^6[12:1],
4,2,,,
,7,5,6,
4,5,3,4,
{12}2x,3x,4x,
7x,6x,5x,
2xb-5[12:1]/4x,,,
6h[12:3],,,
4v1[12:1],,7,
7h[12:3],,,
2x-5[12:1],,,
6,,7,
7,5,6,
3,4,2,
8xbv5[12:1],,,
2h[12:3],,,
6-1[12:1],,3,
3h[12:3],,,
8xv3[12:1],,,
2,,1,
1,5,3,
1-5[12:1],5,7,
1b,,7,
5-1[12:1],6,4,
5,,3,
1-5[12:1],2,8,
1,,7,
5,5,6,
4,4,5,
3-7[12:1],3,4,
3b,,6,
5-1[12:1],7,7,
5,,6,
8>3v5[8:4],7,1,
8,,,
,,,
E2,,B1,
B8,E8,,
6xb^3b[12:1],,,
,,,
{24}D6,,{12},{24}E5,C,
{12},{24}D4,E3,{12}D2,
6x^3b[12:1],,,
,,,
{24}D4,E5,{12},{24}D2,E1,
{12},{24}E3,C,{12},
6xb^3b[12:1],,,
,,,
{24}E7,C,{12},{24}D8/E5,E1/D4,
{12},{24}C,E3,{12},
6x^3b[12:1],,,
,,,
{24}E7,,{12},{24}Chf[384:1],,{12},{24}E3,,{12},
3xb,4x,5x,
6x-2[12:1],7x,8x-4[12:1],
,,,
,C,,
8x,7x,6x,
5x-1[12:1],4x,3x-7[12:1],
,,,
,C,,
{16}1x-4[12:1],,,,
,,,,
5x-8[12:1],,,,
,,,,
4,8,2x,6,
8,4x,2,6,
4xz8b[4:1],,,,
,,,,
,,,,
,,,,
,,,,
,,,,
5h[4:5],,,,
E3,,,,
,,,,
C,,,,
,,,,
E7,,,,
{12}7x/6x,5x/8x,1x/4x,
2x/3x,,,
{16}7-2[8:1]/C,,6,,
4-7[8:1]/7,,3,,
4-1[8:1]/2,,3,,
4<2[4:1]/8,,6,,
C,,,,
3h[8:1],,5,4,
4,5,,,
3,4,3,4,
2^5[8:1],1,2-6[8:1],1,
2x^7[8:1],,,,
,,,,
6,5,6,5,
7^4[8:1],8,7-3[8:1],8,
7x^2[8:1],,,,
,,,,
3-1-7[8:1],4,,4,
3,,5,,
6-8-2[8:1],5,,5,
6,,4,,
3,,2,4,
3,3,6x,7x,
8x,5x,6x,7x,
8x-3[8:1]/5x-8[8:1],,,,
8b/5b,,,,
4w8[8:1],,,,
4,,,,
5w1[8:1],,,,
5,,,,
6q3p6[8:3]/7^2^7[8:3],,,,
,,,,
,,,,
7-4[8:1]/5,,8,,
2-7[8:1]/7,,3,,
5-2[8:1]/2,,6,,
5-8[8:1]/7,,6,,
5>7[4:1]/1,,3,,
C,,,,
6h[8:1],,4,5,
5,4,,,
7,8,7,8,
5^8[8:1],4,5^2[8:1],4,
5x-1[8:1],,,,
,,,,
3,4,3,4,
1^4[8:1],8,1^6[8:1],8,
1x-5[8:1],,,,
,,,,
6-8-2[8:1],5,,5,
6,,4,,
3-1-7[8:1],4,,4,
3,,5,,
6,,7,5,
6,6,2x,3x,
4x,3x,4x,5x,
6x-1[8:1]/3x-8[8:1],,,,
6b/3b,,,,
7,4,5,2-6[8:1],
8,4-8[8:1],6,2x^5[8:1],
,4x,,2x,
,8,7,6,
2,5,4,7-3[8:1],
1,5-1[8:1],3,7x^4[8:1],
,5x,,7x,
,1,2,3,
4bp6<4[8:4]/8bp2>8[8:4],,,,
,,,,
,,,,
,,,,
{24}2h[8:1],,,8,7,6,
5/1h[8:1],,,7,6,5,
4/8h[8:1],,,6,5,4,
3/C,,,,,,
{16}
2,5,4,7-3[8:1],
1,5-1[8:1],3,7x^4[8:1],
,5x,,7x,
,1,2,3,
7,4,5,2-6b[8:1],
8,4-8b[8:1],6,2x^5b[8:1],
,4x,,2x,
,,8h[8:1],,
1-5[8:1],,7-3[8:1]/3,,
15,,7,,
2-6[8:1],,8-4[8:1]/4,,
2-4-6-8-2>2b[8:7]/6,,8,,
A2f,,,,
,,,,
,,,,
,,,,
,,2xb/4xb,3,
4,3xb/5xb,4,5,
4xb/6xb,,,,
E1,E2,E3,E4,
E5,,7xb/5xb,6,
5,6xb/4xb,5,4,
5xb/3xb,4,3,2xb/4xb,
3,2,1xb/C,,
,,,,
,,,,
,,,,
,,,,
,,,,
,,,,
,,,,
,,,,
