&title=Khalid
&artist=Dolphin
&first=0.02
&des=Crystal
&lv_6=13
&inote_6=(128){1},
{1},
{4}4>1[4:1],,8<5[4:1],,
{4}3>8[4:1],,7<4[4:1],,
{4}2<7[4:1],2,6>3[4:1],6,
{4}1<6[4:1],1,5>2[4:1],5,
{8}8<5[16:3],,2-8[8:1],,2,5,1-3[8:1],,
{8}5<8[16:3],,3-5[8:1],,3,8,4-2[8:1],,
{8}8<5[16:3],,2-8[8:1],,2,4,1-3[8:1],,
{8}5<8[16:3],,3-5[8:1],,3,1,4-2[8:1],,
{8}8<5[16:3],,2-8[8:1],,2V41[4:1],5,2,,
{8}5<8[16:3],,3-5[8:1],,3V14[4:1],8,3,,
{8}8<5[16:3],,2-8[8:1],,2-4[8:1],4-1[8:1],2,,
{8}5<8[16:3],,3-5[8:1],,3-1[8:1],1-4[8:1],3,,
{16}6b,,,,7/4h[8:1],,6h[16:3],5>2[16:3],,4,6,5,,,7-5[8:1],,
{16}2,,,,3h[8:1],,5h[16:3],4>1[16:3],,3,5,4,,,6-4[8:1],,
{16}1,,,,2h[8:1],,4h[16:3],3>8[16:3],,2,4,3,,,5<7[8:1],,
{16}5,,,,4h[8:1],,6h[16:3],5>2[16:3],,4,6,5,,,7<5[8:1],,
{16}2,,,,3h[8:1],,5h[16:3],4>1[16:3],,3,5,4,,,6>4[8:1],,
{16}1,,,,2h[8:1],,4h[16:3],3>8[16:3],,2,4,3,,,5<8[8:1],,
{16}1,,,,2h[8:1],,1,2>5[8:1],,3,1qq4[8:3],2,,,1,,
{16}3-1[8:1],,,,3,,5,5,1,6,2,7,3,8,4,1,
{4}5b<4[1:3],,8h[4:1],,
{4}8h[4:1],,7h[4:1],,
{4}7h[4:1],,6h[4:1],,
{4}6h[4:1],,5<7[8:1]/4>2[8:1],,
{16}1>4[16:3],,,4qq5[8:3],,5,5,,6,,,7,,,8,,
{16}8<5[8:1],,,4pp1[8:3],,,3,,2,,,1,,2,2,,
{16}4>1[16:3],,,1pp7[8:3],,8,8,,7,,,6,,,5,,
{16}5,4,6,,3/7,,1,8,2,5,3,6,4,8,1,,
{16}2b/7b,,,6<1[8:1]/5h[8:1],,7,5,,4pp7[16:5],,,2,,,1,,
{16}1pp8[16:5],,,8,,,7,,7<4[8:1],,,1,,3,3,,
{16}6/2,,,3h[8:1]/5<8[8:1],,4,3,,2pp6[8:3],,,1,,,8,,
{16}7<1[4:1],,,8,,,7,,6p2[8:1],,,7,,8,8,,
{16}7b/2b,,,3>8[8:1]/4h[8:1],,2,4,,5qq1[16:5],,,6,,,7,,
{16}7qq8[16:5],,,8,,,1,,1q5[8:1],,,8,,6,6,,
{16}7/3,,,6h[8:1]/4>1[8:1],,5,6,,8qq3[8:3],,,8,,,1,,
{16}2>8[4:1],,,1,,,2,,3q7[8:1],,,2,,1,1,,
{1}1-4[4:6]/8b-5[4:1],
{1}5-8[4:1],
{1}8qq5[4:5]/4b-1[4:1],
{1}8pp3[2:1],
{1}6-1[4:3]/2b-5[4:1],
{1}5-2[4:1],
{1}8bV61[8:3]/1pp4[4:6],
{8}8qq4[16:7],,,,,,,3/5,
{8}2b-8[8:1]/6h[4:3],,,,7-3[8:1],,,6h[1:0],
{8}2>6[4:1],,6<2[4:1],,2h[1:0],,6h[1:0],6h[1:0],
{8}3b-5[8:1]/7h[4:3],,,,6-2[8:1],,,7h[1:0],
{8}3V17[4:1],,7V53[4:1],,3h[1:0],,7h[1:0],7h[1:0],
{16}3h[1:0],4,3,,2h[1:0]/5h[1:0],,3,4,2h[1:0],,1,2h[1:0]/8h[1:0],,5,6h[1:0]/4h[1:0],,
{16}6h[1:0],5,6,,7h[1:0]/4h[1:0],,6,5,7h[1:0],,8,7h[1:0]/1h[1:0],,2h[1:0],5h[1:0],3h[1:0],
{16}4h[1:0],,1,8,2,,3h[1:0]/5h[1:0],,6,4h[1:0],6,4,7h[1:0]/3h[1:0],,2h[1:0]/6h[1:0],,
{32}1,,7,,1,,7,,2/6,,,,3h[1:0],4,3,4,3,,,,2h[1:0]/5h[1:0],,,,3,4,5,6,7h[1:0],8,1,2,
{16}3h[1:0]/8b,,7,,1h[8:1]/6,,7h[16:3],1>4[8:1],,8,7,,7qq3[4:1],,,,
{16}3/7,,3,,2h[8:1],,4,2>5[8:1],,1,8,,8qq4[4:1],,,,
{16}8/4,,4,,3h[8:1],,5,3<6[8:1],,2,1,,1qq5[4:1],,,,
{16}1/5,,4,,3>8[8:1],,4,5,,6,6,,7/8,,2/5,,
{16}6h[1:0]/1b,,2,,8h[8:1]/3,,2h[16:3],8<5[8:1],,1,2,,2pp6[4:1],,3,,
{16}5/2,,6,,7h[8:1],,5,7<4[8:1],,8,1,,1pp5[4:1],,2,,
{16}1/4,,5,,6h[8:1],,4,6>3[8:1],,7,8,,8pp4[4:1],,1,,
{16}8/3,,4,,5<8[8:1],,6,4,,3,3,,2/1,,4/7,,
{8}8b<5[8:1]/3b<5[8:1],,8/3p7[8:1],,3/6,,8q4[8:1]/5-7[8:1],8/5,
{4},8qq4[8:3],3/8,2,
{8}1>4[8:1]/6>4[8:1],,1/6q2[8:1],,6/3,,1p5[8:1]/4-2[8:1],1/4,
{4},1pp6[8:3],6/1,7,
{8}8<5[8:1]/5>2[8:1],,8/5pp4[16:5],,2,,1pp2[4:1]*<6[8:1],1,
{4},5pp6[4:1],3,2,
{8}1>4[8:1]/4<7[8:1],,1/4qq5[16:5],,7,,8qq7[4:1]*>3[8:1],8,
{4},4v5[8:1],8<6[8:1],8p4[8:5]/5qq4[8:5],
{1},
E
