&title=7150日
&artist=瀬名航
&first=1.15
&des=暗夜
&wholebpm=118~120
&des_5=暗夜
&lv_5=13
&inote_5=(118){16}
E8,E7,E6,E5,,,E1,E2,E3,E4,,,5h[8:1],,,,
E1,E8,E7,E6,,,E2,E3,E4,E5,,,Ch[8:1],,,,
E8,E7,E6,E5,,,E1,E2,E3,E4,,,5h[8:1],,,,
E1,E8,E7,E6,,,E2,E3,E4,E5,,,5xs1[15:2],,,,
,,,,
3,4,3,4,2-5[8:1],,5,,2/6V47[16:3],,,4,6,,3,,2,8,2,8,1-6[8:1],,6,,1/5V74[16:3],,,8,5,,1,,
2-6[8:1],,,,8z4[4:1],,,,3h[4:1],,,,,,,,E6,E7,E8,E1,5,,E4,E3,E2,E1,4h[8:1],,,,,,
6,5,6,5,7-4[8:1],,4,,7/3V52[16:3],,,5,3,,6,,7,1,7,1,8-3[8:1],,3,,8/4V25[16:3],,,1,4,,8,,
7-3[8:1],,,,1q4[16:5],,,,6h[4:1],,,,,,,,E8,E7,E6,E5,1x,8x-4-8[4:1],E2,E3,E4,E5,5xh[8:1],,,,,,
1-4[8:1],,,,7,,,,1-4[8:1],,6,,71,,8,,1-4[8:1],,2,8,,,6,,5/1-4[8:1],,4V25[16:3],,,,,,
8-5[8:1],,,,2,,,,8-5[8:1],,3,,28,,1,,8-5[8:1],,7,1,,,3,,4/8-5[8:1],,5V74[16:3],,,,,,
2-7[8:1],,,,28,,,,6-3[8:1],,5,,6,,1,,2-7[8:1],,3,4,,,6,,6v4[8:1],,4q8[8:1],,,,,,
3-6[8:1],,,,35,,,,7-2[8:1],,8,,7,,4,,3-6[8:1],,2,4,,,7,,E7,E6,E5,E4,E3,E2,E1,E8,
E7/4-8[9:1],,,,4^7[9:1]/6,,,,4^1[9:1]/3,,,,4/5-1[9:1],,,,5^8[9:1]/6,,,,5^2[9:1]/4,,,,5/7,,{24}8,7,6,{16}5b/1b,,,,
3,,3,,24,,24,,14,,14,,84,,8h[4:1]/4,,,,7,,56,,34,,1-5[8:1]/2-6[8:1],,,,E2f,,,,
(120){32}8bh[8:1]/3b,4,5,,,,,,8bh[8:1]/3b,4,5,,,,,,8bh[8:1]/3b,4,5,,,,,,8bh[8:1]/3b,4,5,,,,,,
{8}2h[8:1],4h[8:1],5h[8:1],7h[8:1],{24}1^4[8:1],,,6,7,8,1b,,,,,,
{16}7^4[8:1],,5,,78,,1,,2-5[8:1],,4,,21,,8,,74,,6,5,,3,4,,2^5[10:1]/5^8[10:1],,1,,2b/5b,,,,
{32}1bh[8:1]/7b,6,5,4,,,,,1bh[8:1]/7b,6,5,4,,,,,1bh[8:1]/7b,6,5,,,,,,1bh[8:1]/7b,6,,,,,,,
{8}7h[8:1],5h[8:1],4h[8:1],2h[8:1],{24}8^5[8:1],,,3,2,1,8b,,,,,,
{16}1/8-4[8:1],,4-7[8:1],,83,,2,,1-5[8:1],,5,,16,,7,,8,,2,4,3,,6,,7-4[8:1]/5-2[8:1],,,,7x/5x,,,,
3xh[2:1],,,,E8/B8/E1,,,,4h[2:1],,3,,E1/B1/E2,,,,3h[2:1],,,,E8/B8/E1,,,,4h[4:1],,,,C,,,,
6h[2:1],,,,E2/B1/E1,,,,5h[2:1],,6,,E1/B8/E8,,,,6h[2:1],,,,E2/B1/E1,,,,5h[4:1],,B8/E1/B1,,B8/E1/B1,,,,
4>6[2:1],,,,,,,,B6/B4,,,,,,,,5<3[2:1],,,,,,,,B3/B5,,,,,,,,
2x/B5,,,,6x/B1/E2,,,,3x/B8/E1/E8,,,,7x/B4/E4/B3/E3,,,,1xh[1:1]/B6/B5/E5/B4/B3/Chf[1:1],,,,,,,,,,,,,,,,,,,,,,,,,,
{24}5,4,5,3bh[4:3],,,,,,1b,,,8b,,,7b,,,6b,,,5bp1[8:1],,,2,3,4,5b/7b-3[8:1],,,,,,
{16}7/8-4[8:1],,1,,8/5^2[8:1],,6,,5/7-4[8:1],,8,,7/1-3[10:1],,8,,5/1-7[10:1],,7,,5/1w5[8:1],,3,,1,,,,2/8,,,,
{32}1bh[8:1]/7b,6,5,4,,,,,1bh[8:1]/7b,6,5,4,,,,,1bh[8:1]/7b,6,5,,,,,,1bh[8:1]/7b,6,,,,,,,
{8}7,56,34,12,7^4[8:1]/8,{24}1,8,1,2b-6[8:1]/7b,,,,,,
{16}2/1-5[8:1],,8,,1/4^7[8:1],,3,,4/2-5[8:1],,1,,2/8qq4[16:5],,8,,4,,3,,2,,1,,1-5[8:1],,28,,7,,8,8,
{32}7xb/4b,63,52,,,,,,7b/4b,63,52,,,,,,7b/4b,63,52,,,,,,7b/4b,63,52,,,,,,
18,,,,75,,,,54,,,,42,,,,1,2,3,4,5,6,7,8,1b-5[8:1]/5,,,,,,,,
{16}1/6-3[8:1],,7,,6/4-8[8:1],,2,,4/1-5[8:1],,2,,1/8-3[8:1],,7,,8/5-1[8:1],,4,,5/8qq4[40:13],,7,,5^2[10:1],,,,5x,,,,
{32}6b/2b,73,84,15,,,,,6b/2b,73,84,15,,,,,6b/2b,73,84,,,,,,6b/2b,73,,,,,,,
48,,,,57,,,,45,,,,24,,,,18,7,6,5,4,3,2,1,8b-5[8:1]/4,,,,,,,,
{16}4V68[32:5],,3,,1-5[8:1],,1,,6V42[32:5],,6,,7,,8,,81,,8,1,7-3[8:1],,3-6-4[32:5],,,,,,,,,,
1bxw5[8:1],,,,,,,,8bxw4[8:1],,,,,,,,2x-5[10:1]/6x-3[10:1],,,,2x<4[32:6]/6,,,,2x/6x,,,,{32}E4,E3,E2,E1,E8,E7,E6,E5,
{4}E4/8xV25[4:1],,4x-8[4:1],,5xs1[4:1],,2x<2[32:10],,
(118){16}Ch[4:3],,,,,,,,,,,,,,,,
7,5,6,5,7,,2,4,3,4,2,,1/8,,,,
E7,E5,E6,E4,,,E3,E5,E4,E6,,,,,,,
E8,E7,E6,E5,1x,8xz4z8[16:7],E2,E3,E4,E5,,,,,,,
,
