&title=夜は猫といっしょ 第1夜 「ネコが家に来た日」
&artist=キュルZ
&first=0
&des=moying
&lv_7=宴
&inote_7=(142){1},
{128}3,,,,,,,5,,,,,,,,4,,,,,,,,,,,,,6,,,,
,,,,,,6,,,,,,,,,2,,,,,,,,4h[128:21],,,,,,,,,
,,,,,,,,,,,,5,,,,,,,,,,,,,,,,,,,,
{4},,,,,,,,,,
{128}7,,,,,,,,,,,,6,,,,,,,,,,,,,,5h[128:42],,,,,,
,,,,,,,,,,,,,,,,,,,,,,,,,,,,,,,,
{128},,,,2,,,,,,,,,,,,,4,,,,,,,3,,,,,,,,
,,,,,5,,,,,,,,,,,,,,,,,,,,,6,,,,,,
{128}6,,,,,,,,4,,,,,,,,,,,,,,,,,,,,,,,,
{1},,,
{128},,,,8-3[108.1904#16:1]/7-3[108.1904#16:1],,,,,,,,,,,,,,,,,,,,,,,,,,,,
,,,,,,,,,,,,,,7b/8b,,,,,,,,,,3h[128:115],,,,,,,,
{4},,,
{128},,,,,,,,,,,5,,,,,,,,,,3,,,,,,,,,6,,
,,,,,,,4,,,,,,,,,,,,,,,,,,,,,,,,,
{128},,,,,,,,,,,,,,,,,,,,,,,,,,,,,,,7,
,,,,,,,,8h[128:16],,,,,,,,,,,,,,,,6,,,,,,,,
{128}1,,,,,,,,5,,,,,,,,,2,,,,,,,,,4,,,,,,
,,,,,,,,,,,,,,,,,,,,,,,,,,,,,,,6h[128:18],
{128},,,,,,,,,,,,,,,,,4,,,,,,7h[128:10],,,,,,,,,
,5,,,,,4,,,,,,,3,,,,,,,,,,,,,,,,,,,
,,,,,,,,,,,,,,,,,,,,,,,,,,,,,,,,
{4},,,,
{128}2,,,,,,,8,,,,,,,,,,,1,,,,,,,7,,,,,8,,
,,,,,,,,,,,6,,,,,,,,6,,,,,,,,5,,,,,
{128},,,,,,7,,,,,,,,4,,,,,,,,,,6h[128:24],,,,,,,,
,,,,,,,,,,,,,,,,5,,,,,,,,,,,,,,,,
{4},,,,,
{128},,,,,,,,,,,,,,,,,,,,,,,,,2,,,,,,,
,,,,,4,,,,,,,,,,,,5,,,,,,,,,,,,,,7,
{128},,,,,,,,,,1,,,,,,,8,,,,,,,,2,,,,,,,
,,,,,,,4,,,,,,3,,,,,,,,,,,,,,,,,,,
{4},,,,,
{128},,,,,,6,,,,,,,,,,,6,,,,,,,,,4,,,,,,
,,,4,,,,,,,,,,,,,7h[128:10],,,,,,,,,,8,,,,,,
{128},,6,,,,,,,,,,2,,,,,,,,1,,,,,,,,,3,,,
,,,4,,,,,,,2,,,,,,,,,,,2,,,,,,,,,,8h[128:12],
{128},,,,,,,,,,,6,,,,,,,,,,,,,,,,,,,,,
,,,,,,,,,,,,,,,,,,,,,,,,,,,,,,,,
{128},37,,,,,,,,,,,,,,,,6,,,,,,,,4,,,,,,,
,5,,,,,,,,,2,,,,,,4h[128:15],,,,,,,,,,,,,,,3,
{128},,,,,,5,,,,,,4,,,,,,,,,,,,6,,,,,,,,
8,,,,,,,7,,,,,,,,1,,,,,,,,,,,,,2-6[180#8:1]/8-4[180#8:1],,,,
{4},,,,,,
{128},,,,,,,,,,,,,2h[128:27]/4h[128:27],,,,,,,,,,,,,,,,,,,
,,,,,,,,,,,,,,,,,,,,35,,,,,,,,,,,46,
{128},,,,,,,,57,,,,,,,,,,,,,,,,,,,,,,,,
,,,,,2,,,,,4,,,,,,3,,,,,,,,8,,,,,,,,
{128},,1^6[180#16:3]*v4[180#16:3],,,,,,,,,,,,,,,,,,,,,,,,,,,,,,
,,,,,,,,,,,,,,,,,,,,,,,,,,,,,,,,
{4},,,,,,,,,,,
{4}4-1[40.5714#4:7]/5-8[40.5714#4:7],
{4},,,,,
{128},,,,,,,3,,,,,,,,,,,,,,,,,,,,,,,,,
,,,,,,,,,,,,,,,,,,,,,,,,,,,,,,,,
{4},,,,,,,
{128},,,,,,,,,,,,2h[128:31],,,,,,,,,,,,,,,,,,,,
,4,,,,,,,,,,5,,,,,,,,,,,,,3,,,,,,,,
{128},,,,4,,,,,,,,,,,,,5,,,,,,,,,,,,,,,
,,,,,,,,,,,,,,,,,,,,,,,,,,,,,,,,
{128},,,,,,,,,,,7h[128:24],,,,,,,,,,,,,,,,,,,,,
,,,6h[128:18],,,,,,,,,,,,,,,,,,5,,,,,,,,,,3,
{128},,,,,,,,,4,,,,,,,,,,2,,,,,,,,,,,,,
5,,,,,,,,,,,,,,,,,,,,,,,,,,,,,,,,
{4},,,,,,,,,,
{128}27,,,,,,,,,,,,,,,,,,,,,,,1-4[156.6897#12:1]/8,,,,,,,,,
,,,,,,,,,,,,,,,,,,,,1,,,,,,,,,,,,
{128}7,,,,,,,,,,,,6,,,,,,,,,,,,,,,,45,,,,
,,,,,,,,,,,,,,,,,,,,,,,,,,,,,,,,
{4},,{128},,,,,,,,,,,,,,,,,,,
(112){8}18,2,{16}34,,6,5^2[16:3],,,
{8}6,7,8,7,4pp4[4:1],7,4qq4[4:1],,
{16}8,7,{4}6,
{8}45,6,{16}17,,2,4^7[16:3],,,
{8}8,1-5[8:1],2-6[8:1],1^6[8:1],2,1,2,
{16}3,4,2,,6,5,7,,
{8}81,7,{16}65,,3,4^7[16:3],,,
{8}3,2,1,87,61,52,4/3qq4[8:3],,
{8},6,6,
{8},8,{16}7,,6,6v3[16:3],,,
{8}3,4,5,
{16}1,,8,,7,5,6,,2,4,3,,1,8,1,,
{8}2b/7b,3,{16}45,,6,5^2[16:3],,,
{8}6,7,8,1-5[8:1],3^6[8:1],1,3,,
{16}8,7,{4}6,
{8}54,3,{16}82,,7,5^2[16:3],,,
{8}1,8-4[8:1],7-3[8:1],8^3[8:1],7^4[8:1],8,7,8,1,
{16}3,4,2,,
{8}18,2,{16}34,,6,5^2[16:3],,,
{8}6,7,8,12,38,47,5/6pp5[8:3],,
{8},2,2,
{8},1,{16}2,,3,3p6[16:3],,,
{8}6,5,4,
{16}8,,1,,3,4,2,,6,5,7,,1,8,1,,
{4}3b/5b-1[2:1],3,3,3,
8/2q6[2:1],8,7,7,
5^8[4:1],8^3[4:1],3,4,
{8}4-1[8:1]/5-8[8:1],36,,,
{32}1,2,3,4,5,6,7,8,
{4}1b,
{4}1/2^5[8:1],8,7^4[8:1]/8,1,
4/3^8[8:1],5,{8}78,16,25,,
{4}8/7p3[8:1],1,2q6[8:1]/1,8,
5/6^1[8:1],4,{8}21,83,74,,
{4}1^6[8:1]/2,1^4[8:1],1-5[8:1],1,
4-1[8:1]*-7[8:1]/3,4,{8}18,27,36,,
{8}4^7[4:1],3,2,1,8,7,6,
{4}2qq1[4:1],1>6[4:1],{8}7,7,,1b,,
{4}8<4[4:1],4>8[4:1],8<4[4:1],4>8[4:1],
8z4[4:1],4,{8}3,24,51,,
{4}1V35[4:1],5V71[4:1],1V35[4:1],5V71[4:1],
1s5[4:1],5,{8}6,75,48,,
{4}2-5[8:1],6-1[8:1],3-8[8:1],7-4[8:1],
1^4[8:1]*^6[8:1],1,{8}45,36,27,18,
{8}2b-5[8:1],,28,7-4[8:1],,47,3-8[8:1],,
4,5,5,46,37,37,28,28,
{2}7b/1h[2:1],2h[2:1],{4}3h[4:1],4h[4:1],5h[2:1],,
{2}1h[2:1],8h[2:1],{4}7h[4:1],6h[4:1],5h[4:1],
4pp4[4:1]*pp4[4:1],4qq4[4:3]*qq4[4:3]/3h[1:1],
