&title=Last Resort
&artist=xi
&first=1.01
&des=TehN1ppe
&lv_5=15
&inote_5=(252)
{32}3bx/6bx,,,,,,,,
4h[8:1],,,,5h[8:1],,,,4h[8:1],,,,5h[8:1],,,,1,,2,,3,,4,,5/6,,,,5/6,,,,4/5,,,,3h[4:1]/4h[4:1],,,,,,,,,,,,8,,7,,8,,7,,8b,,,,,,,,
{4},,,,,,,,,,,,,,,
{8}6/1-5[8:1],,1/7-3[8:1],,7/2-6[8:1],,2/8-4[8:1],,8/1-5[8:1],,1/7-3[8:1],,7/2-6[8:1],,2/8,,
{12}4,,4,5,,5,7,,7,5,,5,3,4,2,6,5,7,2,3,1,7,6,8,7bhx[4:1]/1bhx[4:1],,,
{4},,
{32}2,,1,,2,,1,,2,,,,8x,7x,6x,5x,2,,,,8x,7x,6x,5x,2,,1,,2,,1,,3,,8,,3,,8,,4bh[9:8],,
{16},5,,5,,5,,6,,7,,6,,5h[9:8],,,,4,,4,,4,,3,,2,,3,,1,8,1,,1h[8:1],,7,,7h[8:1],,2,,2h[8:1],,6,,6h[8:1],,3,,3h[8:1],,5,,5h[8:1],,4,6,4,6,4,,
3,,7bh[9:8]/2b,,2,,2,,3,,4,,3,,2,,3h[9:8],,,,6,,6,,7,,8,,7,,8,,5,4,5,,5h[8:1],,3,,3h[8:1],,6,,6h[8:1],,2,,2h[8:1],,7,,7h[8:1],,1,,1h[8:1],,5,4,5,4,5,,
6/3,,7bh[4:1]/2bh[8:1],,,,2,,7h[4:1]/3h[8:1],,,,3,,7/4,,,,6h[8:1]/2h[4:1],,,,6,,7h[8:1]/2h[4:1],,,,7,,8/2,,,,1h[8:1]/5h[4:1],,,,1,,2h[8:1]/5h[4:1],,,,2,,3h[8:1]/5h[8:1],,
,,2,,3,,7,,6,,4,5,4,5,4,,6/4,,3,7,3,7,3,7,3,7,3,7,3,7,3,,3/7,,4,8,4,8,4,8,4,8,4,8,4,8,4,,,,1,2,3,4,5,6,7,8,1,2,3,4,5,6,7,8,1,7,2,6,1,7,2,6,1-5[8:1],7,2,6,
1b>7[1:2]/Cf,,,,1,,,,
{4},,,,,,,,,,,,,,,
{16}E8/B8/B7,,E7,B6,B5,E5,,,,,B4/E4/B3,,,,B1/B2/E2,,,,7,,2,,7,,3,,6,,3,,6,,5b/4b,,4,5,4,,6h[4:1]/3h[4:1],,,,,,3/6,,7h[4:1]/2h[4:1],,,,,,7/2,,,,1,6,1,6,1,6,1,6,1,,
1-5[8:1],2,3,,1/6,,,,7-3[8:1],,2,,7/2,,,,4,,5,,6,,7,,6,,5<1[3:2],,4,,5/3,,,,,,2,,3,,4,,,,1h[4:1]/5h[4:1],,,,,,1/5,,,,1,2,7,6,2,3,6,5,1b,,7,8,6,,,,,,7/1,,,,
7h[8:1]/1h[8:1],,,,2,8,2,,1h[8:1]/3h[8:1],,,,1/3,,{12}8,7,6,5/4,,,3,6,3,{16}7/2,,7-4[8:1]/2-5[8:1],,,,7b/2b,,,,{32}8x,7,6,,1,,,,8x,7,6,,
{16}1,2,3,4,5/1,8,7,6,5/1b,,,,,,,,,,,,,,,,,,,,,,,,
{8}3h[1:1],,,,5h[2:5],,,,,,,,1h[1:1],,,,,,,,,,,,{12}E2,E3,E4,E8,E7,E6,Ch[3:5],,,{8},,8,,7,,6h[3:2],,,,,,,,{16}8,7,8,7,1,6,1,6,2,5,2,5,3,4,3,4,
2h[8:1]/5h[4:1],,,,2,,3h[8:1]/6h[4:1],,,,3,,4h[8:1]/7h[4:1],,,,4,,
3h[8:1]/6h[4:1],,,,3,,2/5,,,,2/5,,8,7,6h[8:1]/1h[4:1],,,,7,,7h[8:1]/2h[4:1],,,,7,,
8h[8:1]/3h[4:1],,,,8,,7h[8:1]/2h[4:1],,,,7,,1/6,,,,1/6,,2,3,4h[4:1]/5h[4:1],,,,,,
4h[4:1]/5h[4:1],,,,,,4,5,4,,6h[4:1]/3h[4:1],,,,,,6h[4:1]/3h[4:1],,,,,,
1,8,7,6,5/3,,7/1,,6/4,,8/2,,6/5,,7/2,,4/3,,8/1,,
4bh[12:1]/6h[12:1],,,4h[12:1]/7h[12:1],,,4/8,,
3bh[12:1]/5h[12:1],,,2h[12:1]/5h[12:1],,,5/1,,
1,2,3,4,8,7,6,5,1,2,8,3,7h[4:1],,,,2,3,4,5,1,8,7,6,4,5,3,6,2,7,1,8,2b,
1,3,8,4h[8:1],,,,7b,8,6,1,5h[8:1],,,,3,4,2,6,5,7h[8:1],,,
{12}2,,8,1h[8:1],,7,8h[8:1],,6,{16}3,4,2,,1b/5b,,6b/2b,,7b<3[4:3]/3b>7[4:3]b,,,,
{4},,,,
{16}2hx[16:3],,,3h[16:3],,,4,,5h[16:3],,,6h[16:3],,,7,,
1h[16:3],,,2h[16:3],,,3,,4h[16:3],,,5h[16:3],,,6,,
8,7,8,7,1,6,1,6,2,5,2,5,3,4,3,4,
1,2,3,4,8,7,6,5,2,3,4,5,6,7,8,1,2,
{32},,7x,6,5,,2,,,,7x,6,5,,2,,,,8x,7,6,,2,,,,8x,7,6,,2,,,,8x,7,6,,2,,,,8x,7,6,,
{16}1,5,2,6,3,7,4,6,5,,
{4},,,,,,,
{16},,1,1,1,1,1,1,1,1,1,1,1,1,1,1,1,,3bv6[8:1]/7b-2[8:1],,2b/6b,,3b/7b,,,,
1,8,2,7,3,6,4,5,6h[4:1]/4h[4:1],,,,,,5h[4:1]/3h[4:1],,,,,,4h[4:1]/2h[4:1],
,,,,,3h[4:1]/1h[4:1],,,,,,1/2,,8/1,,7/8,,{24}2,3,4,{16}5h[4:1]/7h[4:1],
,,,,,6h[4:1]/8h[4:1],,,,,,7h[4:1]/1h[4:1],,,,,,8h[4:1]/2h[4:1],,,,,,
7/1,,8/2,,7/1,,{24}8,7,6,{16}5-2[8:1],,3,,5,,1v6[8:1],,7,,1,
,7-3[8:1],,2,,7,,1h[4:1],,,,4,,3/5,,4/6,,3,4,3,4,3,4,2,5,1,6,8,7,
2-6[8:1]b,1,3,8,2,,,,,,3h[8:1]/5h[8:1],,,,4,,5/6,,7/8,,1,2,3,4,
5b/7-3[8:1],,,,7/2-6[8:1],,,,2/8-4[8:1],,,,8/1-5[8:1],,,,1/7-3[8:1],,
,,7/2-5[8:1],,,,2/6,,,,8/2-6[8:1],7,6,5,{16}4b-8[8:1]/2,,,,4/3-7[8:1],,
,,3/6-1[8:1],,,,6/2-5[8:1],,,,2/7-3[8:1],,,,7/2-6[8:1],,,,7/2,,,,
5,4,3,2,1b/8-4[8:1],,7,,2-5[8:1]/8,,1,,2/7-4[8:1],,8,,7/1-5[8:1],,
2,,8-4[8:1]/1,,7,,8/2-6[8:1],,1,,2/7,,,,4,5,4,5,4,5,3,6,2,7,1,8,
2,1,3,8,2,1,3,8,{32}2,3,4,5,6,7,8,1,2,3,4,5,6,7,8,1,2,3,4,5,6,7,8,1,2,3,4,5,6,7,8,1,
{16}2b/6x,,8b/4,,,,3b/7,,1b/5,,,,2b/6,,8b/4,,,,3b/7,,1b/5,,,,
8v5[8:1]/2v5[8:1],,,,,,,,4,,4,,3,,3,,4,,4,,6,,6,,
7>1[8:1],,7,,4>2[8:1],,4,,6-1[8:1],,6,,5,,5,,6/4,,3,,2,,
5/3,,6,,7,,4/6,,3,,2,,1,,8,7,8,6,8-4[8:1],7,8,6,8,,,,
3/5,,6,,7,,4/6,,3,,2,,5/3,,6,,{12}3,4,2,6,5,7,2,1,3,8,1,7,
{24}2,3,4,7,6,5,2,3,4,7,6,5,{16}4/2,,3/5,,4/6,,3/5,,
{32}2,,,,8x,7,6,,2,,,,8x,7,6,,
{16}2,4,2,4,3,5,3,5,4,6,4,6,4,6,1,6,1,6,1,6,2,6,3,6,4,6,4,6,4,6,3,6,3,6,3,6,
2,6,2,6,3,5,3,5,3,5,2,5,2,5,2,5,1,5,1,5,8,5,1,5,2,6,3,7,2,5,3,6,4,5,3,6,
4/5,,3/6,,2/7,,6/5,,4/7,,3/8,,4/5,,3/6,,2/7,,3/4,,2/5,,6/1,,
7,6,5,4,3,2,1,8,7-3[8:1],,7,,6-2[8:1],,6,,5-1[8:1],,5,,4-8[8:1],,4,,
{32}7,,,,1x,2,3,4,7,,,,1x,2,3,4,
{16}7,5,7,5,7h[8:1],,,,8/1,,7/2,,6/3,,1/2,,8/3,,7/4,,8/1,,7/2,,6/3,,
7/8,,6/1,,5/2,,3,4,5,6,7,8,1,2,3-7[8:1],,3,,4-8[8:1],,4,,5-1[8:1],,
5,,6-2[8:1],,6,,
{32}3,,,,8x,7,6,5,3,,,,8x,7,6,5,
{16}3,4,3,4,2,5,2,5,1bh[3:1]/Cf,,
{4},
{16},,5,6,5,6,5,6,5,6,4,5,4,5,4,5,4,5,3,4,3,4,3,4,3,4,
2,5,3,4,2,5,3,4,3,6,4,5,3,6,4,5,2,6,1,5,2,6,1,5,
{32}2,3,4,5,6,7,8,1,2,3,4,5,6,7,8,1,2b>5[8:1],,,,,,,,
6,7,8,1,6,7,8,1,2b>5[8:1],,,,,,,,6,7,8,1,6,7,8,1,2b,,,,
{16}3,,6b,,5,,4/2b,,3/5,,4b/6,,5/7,,
8/2b,,6b/4,,,,7/1b,,3/5b,,,,8b/6,,2/4b,,,,
7/1b,,6b/4,,8/2b,,3/5b,,7/1b,,6b/4,,2b/8,,,,,,
{24}2/6,3/7,4/8,5/1,6,7,8,1,2,3,4,5,6,7,8,1,2,3,4,5,6,7,8,1,2,3,4,5,6,7,8,1,2,3,4,5,
6,7,8,1/5,2-6[8:1]b/6,3/7,4b/8b,,,2b/6b/Cf,E
