&title=見つかんない見つかんない
&artist=きくお
&first=0
&des=I have two sides
&lv_5=14
&inote_5=(128)
{2}
,
{16}6h[8:1],,4h[8:1],,5h[8:1],,2h[8:1],,4,3,5,4,6h[8:1],,5h[8:1],,7h[8:1],,5,5,6,6,4,4,
7,7,5,6,8,7,5qq3[16:3],,,,,,6,,4,3,
4,,6,,2,,2,,7,7,5,6,8,7,5qq3[16:3],,
,,,,6,,,3pp4[4:1],4,3,5,,,,,,
7,7,5,6,8,7,5qq3[16:3],,,,,,6,,4x,3x,
4x,3x,6,,7/1pp6[4:1],,26,,,,,,8>3[16:3],,7qq4[8:3]/5,,
,,,,,,,,3,,52,5,4,6,5,5,
7,7,5,6,8,7,5,6,8<6[8:1],,,,8/1qq7[32:5],,,2,
1,,3h[4:1],,{48}8x,7x,,,,,8x,7x,,,,,{16}
6,5,8-3[8:1],8,,7,8,,
6h[8:1],,5,,4h[16:3]/7,,,6h[8:1],,8,7h[4:1],,{48}1x,2x,,,,,1x,2x,,,,,{16}
7,7,5,6,8,7,5qq3[16:3],,,,,,6,,4h[48:1],3h[48:1],
4h[48:1],3h[48:1],6h[8:1],,8,,5/7h[8:1],,5,6,5,7h[8:1],,8,7,,
6h[8:1],,5,,7h[16:3]/4,,,5h[8:1],,6h[16:7],D2/A2/D3/A3/D4,,,,,,
8,6,1V75[16:3],7,2,8,3,,2,,1h[8:1],,4,2,5V31[16:3],3,
6,4,7,,6,,5h[8:1],,8,6,1V75[16:3],7,2,8,3,,
2,2h[8:1],,4,3,5,3,7,5,7,1,7,3,1,3,5,
4xv3[4:1]*v7[4:1],,,,,,,,,,,,{24}2,7,2,7,2,7,2,7,
2,7,2,7,{32}2,3,4,5,6,,,,{16}1b-6[8:1],1,8,,2,,3>8[8:1],3,4,,5,,6>3[8:1],6,5,,7,,8q4[8:1],,17,,6,,
7h[8:1],,5-2[8:1],5,,6,5,,7-4[8:1],,16,,8,,2-5[8:1],2,
,1,2,,8v3<5[32:7],,61,,5,,6,,7h[8:1],,5-8[8:1],,
6,4,5,,1<6[8:1],,8,2,1,,5,,62,,4/7h[8:1],,
5>1[32:5],,8,,56,,8V24[32:5],,5,,78,,5>1[8:1],,8,,
65,,7,,8/6h[8:1],,5,,8-3[8:1],8,1,,7,,6<1[8:1],6,
5,,4,,3<6[8:1],3,4,,2,,1p5[8:1],,28,,3,,
2h[8:1],,4-7[8:1],4,,3,4,,2-5[8:1],,83,,1,,7-4[8:1],7,
,8,7,,1,,26,,3-7[8:1],,5,,3,,4-8[8:1],,
8,,4,,2-6[8:1],,7,,2,,1,,58,,7/4<7[8:1],,
5,3,4,,8-5[8:1],,7,1,8,,4<7[8:1],,5,3,4,,
8,8,7,1,6,2,5,3,4x<7[8:1],,1x>4[8:1],,4xqq3[16:3],,1x<7[12:1],,
,,,,4x>1[8:1],,7x<4[8:1],,4xpp5[16:3],,7x>1[12:1],,,,,,
4x<7[8:1],,1x>4[8:1],,4xqq3[16:3],,1x<7[12:1],,,,,,4x>1[8:1],,7x<4[8:1],,
4x,,7x/A1,A8,A7,A6,A5,A4,8x>3[8:1],,5x<8[8:1],,8xqq7[16:3],,5x>3[12:1],,
,,,,8x<5[8:1],,3x>8[8:1],,8xpp1[16:3],,3x<5[12:1],,,,,,
8x>3[8:1],,5x<8[8:1],,8xqq7[16:3],,5x>3[12:1],,,,,,8xh[16:3],,,4,
8-2[12:1],2,6-8[12:1],,8,,6,,4x>1[8:1],,7x<4[8:1],,4xpp5[16:3],,7x>1[12:1],,
,,,,4x<7[8:1],,1xv4[8:1],,4xqq3[16:3],,1x<7[12:1],,,,,,
4x-1[8:1],,7x-4[8:1],,4x-8-6[16:3],,7xv1[8:1],,,,,,5xh[16:3],,,8,
6,5,7h[8:1],,5,6,8,7,1h[16:3],,,4,3,,1h[8:1]/2,,
3,,2,,4h[16:3]/1,,,3,4,,1h[8:1]/2,,3,,4,,
8h[8:1]/7,,6,,7,,5h[8:1]/8,,7,,6,,1h[8:1]/2,,3,1,
5,7,8,6,2-5[8:1],4,3,1,2,,7,7,5,6,8,7,
5-8[8:1],,,,5/1qq7[32:5],,,2,
1,,3h[4:1],,{48}8x,7x,,,,,8x,7x,,,,,{16}
6,5,8-3[8:1],8,,7,8,,
6h[8:1],,5,,4h[16:3]/7,,,6h[8:1],,8,7h[4:1],,{48}1x,2x,,,,,1x,2x,,,,,{16}
7,7,5,6,8,7,5qq3[16:3],,,,,,6,,4h[48:1],3h[48:1],
4h[48:1],3h[48:1],6h[8:1],,8,,57,,6-8[8:1],,,,,5,5-1[8:1],,
,,5,,8<5[8:1],,,,,,D2/A2/D3/A3/D4,,,,,,
2h[8:1]/4,,1,2,4-6[8:1],3,6v1[8:1],,4,,8,,7h[8:1],,8,7,5-3[8:1],6,3v8[8:1],,5,,1,,
2h[8:1],,1,2,4,3,6h[8:1],,5,6,,2,4h[16:3],,,5v2[12:1]*-8[12:1],
,,5,,,,,,7h[8:1],,3<6[8:1],,2h[8:1],,3,,
1<6[8:1],,2h[8:1],,1,,5>2[8:1],,6h[8:1],,5,,7>2[8:1],,6h[8:1],,
7,,4<7[8:1],,3h[8:1],,4,,2<7[8:1],,3h[8:1],,2,,
3-5[8:1],,5-2[8:1],,3-7[32:3],,,,,,1xbs5b[21.3#72:11]*<8z4b[21.3#72:11]/D2h[2:3],,,,,,,,
{1}
,,
{16}
,,
3x-1>2-8>1-7>8-6<7-5<6-4-2[16:17],,3x-1>2-8>1-7>8-6<7-5<6-4-2[16:15],,,,,,,,,,,,
,,,,,,,,,6,5h[8:1]/7b,,4b,,1b/B7/E8f/E7/A7,,
2h[8:1],,4-7[8:1],4,,3,4,,2-5[8:1],,83,,1,,7-4[8:1],7,
,8,7,,1v6>4[32:7],,38,,2,,3,,3h[8:1],,4-1[8:1],,
3,5,4,,8>3[8:1],,1,7,8,,4,,37,,5/2h[8:1],,
4<8[32:5],,1,,43,,1V75[32:5],,4,,21,,4<8[8:1],,1,,
34,,2,,1/3h[8:1],,4,,1-6[8:1],1,8,,2,,3>8[8:1],3,
4,,5,,6>3[8:1],6,5,,7,,8q4[8:1],,71,,6,,
7h[8:1],,5-2[8:1],5,,6,5,,7-4[8:1],,16,,8,,2-5[8:1],2,
,1,2,,8,,73,,6-2[8:1],,4,,6,,5-1[8:1],,
1,,5,,7-3[8:1],,2,,7,,8,,41,,2/5>2[8:1],,
4,6,5,,1-4[8:1],,2,8,1,,5>2[8:1],,4,6,5,,
1,1,2,8,3,7,4,6,{16}5b-2[8:1],5,6,,7,,8b-5[8:1],8,1,,2,,3b-8[8:1],3,4,,5,,6<1[8:1],,57,,6,,
2bh[8:1],,4-7[8:1],43,,2,4,,1>4[8:1],,82,,1b,,8-3[8:1],8,
,7,8,,4v7>1[32:7],,25,,1b,,2,,3h[8:1],,4b-8[8:1],,
2,6,4,,7b-3[8:1],,5,1,7,,4b,,3b/7,,5b/2bh[8:1],,
4<8b[32:5],,1,,43,,1V75b[32:5],,4,,21,,4<8b[8:1],,1,,
34,,2,,1/3h[8:1],,5h[8:1],,4b-7[8:1],4,6,,7,,8b-5[8:1],8,1,,2,,3b-6[8:1],3,6,,7,,8q4[8:1],,71,,6,,
5b,6>3[8:1],7,8h[8:1],,6,1b,8-3[8:1],7,6h[8:1],,8,4b,5p1[8:1],6,7h[8:1],
,5,8,,7,8,,2,4b-2b[12:1],,3b/8b,,,,5b-1b[8:1],,
3b/8b,,,,6b-8b[12:1],,8b/3b,,,,5b,,6b/2b,,47,,
5b-7b[12:1],,6b/1b,,,,4b-8b[8:1],,6b/1b,,,,3b-1b[12:1],,6b/1b,,
,,4b,,3b/7b,,25,,3b-1b[12:1],,1b-4b[8:1]/6b,,,,5b-1b[8:1],,
8b,,,,6b-8b[12:1],,8b-5b[8:1]/3b,,,,4b-8b[8:1],,1b,,,,
{32}
1b,2x-5[16:1],3x,,8b,7x-1[16:1],6x,,2b,,,,7b,,,,
4b,3x-5[16:1],2x,,8b,7x-4[16:1],6x,,3b-8[8:1],,,,7b-2[8:1],,,,
{16}
3b-6[8:1],,7b,,3b,,7bpp5[8:19],,
5b/2bpp1[4:9],,,,,,,,
{1},,,E
