&title=夢縁
&artist=xi/Risa Yuzuki
&first=0
&des=しのさく.
&des_5=しのさく.
&lv_5=14
&inote_5=(162){4},,,,E8/D8,
E3/B2,{16}6,4,7,3,{8}8h[4:1],2,
{16}3b,,,6,{8}5,4/7,3-1[8:1],6,{4}3/8,
{16}4/7bx,,,2,{8}1,8/3,7-5[8:1],4,{4}7/2,
{16}6b/4,,,2,{8}8,3,{16}6,4,7,3,{8}8h[4:1],2,
{16}3x,4,3,4,5x,6,5,6,{8}7/4,3/8,{16}2,6,2,6,
{8}3b/7b,4,6/5,8,4/2,1,7/5,8,
{4}1h[8:1]/6h[8:1],4h[8:1]/7h[8:1],3h[8:1]/8h[16:3],6/1h[8:1],
{8}7x/2,4,3/1,8,6/5,{16}1,7,2,6,{8}3,
5/4,{24}1,7,1,{8}7,6h[4:1],1,{16}3,5,3,5,3,5,
{4}2b,{8},,,,6,7,
{4}3/8>6[4:3],{8},,,,2,3,
4h[8:3],,,7,3/8,2,5,3,
6/2,{16}1,7,{8}2>7pp3[1:1],4,{2}5h[2:1],
{4},,6h[4:1],{8}4,7,
{4}8/2qq5[2:1],{8},,,,8,7,
{4}6h[4:1],{8}3,2,{16}7/1,,,4,{8}6,3,
5/2,6,8/3qq7>4[1:1],7,{2}3/5h[2:1],
{8},,,,,,8,7,
{4}6b/3,{16}4,5,,2,{8}8x,7,6/3,2,
{4}1/8p4[8:1],3,{8}1q5[8:1],4,6,7,
{4}8xs4[4:1],{8}3,2,1z5[4:1],5,{16},7,,,{2}8h[2:1],
{4}4,{16}3,5,3,5,
{4}2x,{16}7,1,,5,{8}4,{16}6,1,{8}7,8,
{4}1/6,{16}3/5,,,8,{8}2x,{16}6,4,{8}7h[4:1],3,
2b,{16}1x,6,2,5,3,5,3,2,1,8,7,6,5,4,
{8}6x/3h[4:1],7x,{16}1,8,7,6,2/5,3,4,5,6,7,8,1,
{8}2/6b,5,{16}3,4,{8}2,{32}7/1,6,{16}5,{8}1,{32}8/2-5[8:1],3,{16}4,{8}8,
2/6,7,4/8,{16}3,5,{8}2-4[8:1],6-8[8:1],2,6,
5b,4,{16}6,3,{8}7,{32}2/8,3,{16}4,{8}8,{32}2/7-1[8:1],6,{16}5,{8}2,
{4}7/3,{8}4b,6b,2b/8b,{16}4,6,{8}3>5[4:1],8,
{2}3b/7,{8}3/5,1,{16}6,5,{8}7,
{32}8x/1,7,6,5,{8}2/4,{32}8x/7,1,2,3,{8}6/4,{4}8h[4:1],{8}3,{16}6,5,
7b,,,8,{8}2,5/3,{16}7-5[8:1],,,7,{8}2>8[2:1],4,
{2}2b,{8}5b,6b,7b,8b,
1b-3[8:1],5,{4}1/6-8[8:1],{32}4/6-4[8:1],3,{16}2,{32},,,,1/6-1[8:1],2,{16}3,,,{4}6/2,
{16}3,5,{8}3,2/6,7,{16}5,3,{8}5,
{32}8x/1,7,6,5,{8}2,{32}8x/7,1,2,3,{8}6,{32}8x/1,7,6,5,{8}2,{32}3,4,5,6,7,8,1,2,
{4}3/6b,{8}8b,4b,7/2b,5/4,6/1,7/2,
{16}3b,8,4,7,3b,5,2,6,1b,8,2,4,3b,5,3,5,
4b,6,4,6,3b,7,3,7,{4}1bw5b[8:1],1b,
{16}3b,,,6,{8}5,4/7,{16}3b-1[8:1],,,6,{8}3,8,
4/7bx,6/3bx,{16}1,5,2,6,3,7,2,6,{8}3h[8:1],5h[8:1],
1b,2,6/5,8,4/2,1,7/5,8,
{4}1h[8:1]/6h[8:1],4h[8:1]/7h[8:1],3h[8:1]/8h[16:3],6/1h[8:1],
{8}7x/2,4,3/1,8,6/5,{16}1,7,2,6,{8}3,
5/4,7,5/4,2,1,{16}3,5,3,5,2,6,
{8}1b,7,6/4,2,5/3,7,{16}2,8,{8}2,
7/5,3,{16}7,1,{8}7,4/2,{16}6,6,2,7,2,7,
{8}1b-3[8:1],{16}1,6,{8}1,7,8b-6[8:1],{16}8,3,{8}8,2,
2b,{24}3,5,3,{8}5,6,7,{16}1,8,2,7,3,6,
{4}4b,{8}5/7,6/4,5/3,{16}1,7,{8}1>7[4:1],6/2,
5h[4:1],,,1,2/7,6,{16}3,5,{8}3,
{24}4b,6,4,6,4,6,3,5,3,5,3,5,2,8,2,8,2,8,{8}2,6/4,
{4}3h[8:1]/5h[8:1],2h[8:1]/4h[8:1],{8}1h[4:1],4,5,6,
{16}7x/3x,,,5x/2x,,,{8}4x/7x,{16}2,8,,,{4}6x/3x,
{16}2x/6x,,,4x/7x,,,{8}5x/2x,{16}7,1,7,1,{4}7b,
{16}2b,8,3,7,4,6,3,7,{4}2h[4:1],5,
{16}8b,5,8b,3,8b,5,8b,3,{2}8bh[2:1],
{1}Cf,
{4},,,,,,,,,,,,2>4[8:1]/8<6[8:1],
8b/2,3>1[8:1]/5<7[8:1],3b/5,
8<6[8:1]/2>4[8:1],8b/2,5<7[8:1]/3>1[8:1],3b/5,
{16}1-3[8:1],,,7,{8}1,6,{16}5-7[8:1],,,3,{8}5,2,
{16}1,8,1,8,1,8,1,8,{8}1b,3b,5b/7b,4,
{32}6bh[8:1]/2h[8:1],,,,,3/7,8/4,1/5,,,,,,,,,7/1,6,{16}5,{8}1,{32}8/2-5[8:1],3,{16}4,{8}8,
2/6,7,4/8,{16}3,5,{8}2-4[8:1],6-8[8:1],2,6,
5b,4,{16}6,3,{8}7,{32}2/8,3,{16}4,{8}8,{32}2/7-1[8:1],6,{16}5,{8}2,
{4}7/3,{8}4b,6b,2b/8b,{16}3,5,2,6,3,5,
1b,7,2,6,3b,5,4,6,1b,8,3,6,2b,5,3,6,
4b,7,3,8,2b,5,3,6,2b,5,2,5,3b,6,2,7,
1b-3[8:1],,,1,{8}7-5[8:1],5-8[8:1],4,2,{4}1-3[8:1],
{16}1b/6-8[8:1],,,6,{8}4,3,2/1,3/4,6/5,8/7,
{16}3b,,,2,{8}8,3,{16}6,4,7,3,{8}8h[4:1],2,
{16}3x,4,3,4,5x,6,5,6,{8}7/4,3/8,{16}2,6,2,6,
{32}3b/7b,4,5,6,7,8,1,2,3,4,5,6,7,8,1,2,3,4,5,6,7,8,1,2,3,4,5,6,7,8,1,2,
6b/3,7,8,1,2,3,4,5,6,7,8,1,2,3,4,5,2b/6,1,8,7,6,5,4,3,2,1,8,7,6,5,4,3,
2/6b,7,8,1,2,3,4,5,6,7,8,1,2,3,4,5,6,7,8,1,2,3,4,5,6,7,8,1,2,3,4,5,
6,7,8,1,2,3,4,5,6,7,8,1,2,3,4,5,6,7,8,1,2b,3,4b,5,6b,7,8b,1,2b,3,4b,5,
{8}6b/1bh[8:7],{4},,,{32}E7,E6,E4,E3,
E
