&title=盟月
&artist=打打だいず
&first=0.03
&des=F.
&lv_5=14+
&des_5=F.
&inote_5=
(218){4},{1},{4},,{16},,,,
{1}4h[4:3]/5h[4:3],
E2,
E3,
E4,
E5,
6h[4:3]/E6,
7h[4:3]/E7,
1h[4:3]/E8,
2h[4:3]/Ch[4:3],
{4}1,1h[4:1],{8}6,6pp1[16:9],,4h[8:5],
,,,,,,,,{4}4/6h[8:1],
5h[8:1]/3h[8:1],{16}3,4,3,4,{8}2-6[2:1],5h[16:1],
,3h[16:1],,7h[16:1],,8/1,{4}8/1,
2b/7b,{8}6,6h[4:1],,5h[4:1],,4h[4:1],
,3h[4:1],,5,{4}5h[8:1],{8}2,2,
7x/1x,7x/1x,2,3,5x/4x,5x/4xh[8:1],{16}E6,E7,{8}E8,
2x/8x,2x/8xh[8:1],3,4,5x/7x,7x<4[8:1]/5x-1[8:1],,,,2,
{4}2>5-1<6-4-2-8-6[16:23],,,,,,,5,
{12}4,6,3,5,3,6,4/5,3/6,2/7,
{8}1/8,{16}3,4,{8}3,8,{16}6,5,{8}6,{4}2h[4:1]/7h[4:1],
{32}B2,C,{16}B6,{32},,,,,,,,,,,,E8,B8,,,E7,B6,,,{8}3,E1,
3,B7,3,B5,3,B6,3,B8,
{4}4,4,{8}4,8,4/7,6h[1:1],
{4}4,4,4,4,
3h[4:1],5,{32}E2,B1,,,E3,B3,,,{8}6,E1,
6,B2,6,B4,6,B3,6,2h[8:3],
{24},,,,,,1,8,7,6h[8:1],,,E2,E3,E4,8,7,6,{8}5h[8:1],{24}E1,E2,E3,
7,6,5,4h[8:1],,,{8}3x,2x,1x,1x/8,8x/1,1x/8,
{4}2/7h[4:1],1b,{8}2/6,6/2>5[4:1],,5q1[4:1],
,1q5[4:1],,5q3[16:5],,7,,8h[4:1],
{16}4,5,6,7,8-4[8:1],1,{8}2-6[8:1],8,2<3[2:1],7,2b,
,,,,,5,5,2,
{16}3,4,{8}3,2/5,5/2h[4:1],,4,5,6,
{16}7,8,7,8,{8}7,6h[8:3],8,{24}E1,E2,E3,{4}3xh[4:1],
8<5[8:1],{8}2-6[8:1],2,{4}7<4[8:1],1-5[8:1],
1b-3b[8:1],{8}4/1b-7b[8:1],4,1b/5,5,{16}2b/6b,3/7,4/8,5/1,
{1}6bx/2bx>2[4:11]*q2[4:11],
,,,6bh[2:1]/1>5[8:3],
3bh[2:1]/8<4[8:3],
{4}7bh[2:1]/1-5[4:1],{12},,,,,,4,5,3,
{4}6,{12}3,4,3,6,5,6,2,7,1,
{24}A8,B7,{12}B5,{24},,,,,,,,{8}1,1h[8:5],,7h[4:3],
{24},,,,,,,2,3,4h[4:1],,,,,,,6,5,{4}4,
2h[8:1]/6h[8:1],2h[8:1]/6h[8:1],{16}5,4,6,3,{8}7-3[2:1],4h[16:1],
,6h[16:1],,2h[16:1],,1,8/1,1/8,
{4}2b/7b,{8}3,6,1,6,4,6,
2,3,6,3,8,3,5,3,
{4}E1,{8}E3,E7,,B8/B1,,B5/B4,
,E8,{4}E2,{8}C,1,2,3,
4/6,6,6,6,3/5,3,3,3,
5x/6,7,8,4x/3,2,1,1/8x,1/8,
2x/8x,8x/2x,{16}8,7,6,5,{8}3x,3x/4x,{16}E5,E6,E7,E8,
{8}1x,8x/1x,{16}1,2,3,4,{8}5x/6x,4x/7x,3/8,2/1x-5[8:1],
,,2b,2,2,{16}5,4,{8}5,5,
{16}3,6,3,6,2,7,2,7,{32}1,2,3,4,5,6,7,8,1,2,3,4,5,6,7,8,
{2}1/Cf,{8}2/7,8/1>4b[8:1],,1/8b<5b[8:1],
,8-4[8:1]/1b-5[8:1],,1b/8b,{24},,,4x/5x,3x/6x,2x/7x,{4}1x/8x,
{8}8b/1,{16}2,3,{8}4h[8:1],{16}8,7,{8}6h[8:1],5<2b[4:1],,5/7,
,4,5,6,3,2,{16}1/8,2,3,4,
{8}5/6,{16}7,6,{8}5h[8:1],{16}1,2,{8}3h[8:1],5,{16}5,6,{8}3/7<4[8:1],
,3>8[8:1],,6,,7,2/7,7,
6/4,{16}3,2,{8}1h[8:1],{16}5,6,{8}7h[8:1],8h[8:1],,8/1,
1/8,{24}2,3,4,{4}6b/5h[8:1],{8}8/1,{24}7,6,5,{4}3b/4h[8:1],
{8}1b/8b,{16}6,5,{8}6,{16}3,4,2,5,1-4b[8:1],6,{8}8,7b/1-6b[8:1],
,3b/1w5b[8:1],,1b,{24},,,4x/6x,3x/7x,2x/8x,{4}1bx,
{8}1b/8b,{16}6,5,{8}7h[8:1],{16}3,4,{8}2,1<3[8:3],8,7/1,
{16},,E2,E1,E8,E7,E6,E5,{8}2,{16}3,5,{8}4,{16}5,4,
6,7,8,1,2/5,4,3,2,1/8,7,6,5,{8}4bx/3bx,4bx/3bx-8b[8:1],
,3b/4-7b[8:1],,4b/1,,8/6,{4}8/6,
1w5[8:1],1b,{8}3,6,3,7,
8/2,2/8,{16}1,8,{8}1,2/7,2-5[8:1]/7-4[8:1],,2b/7b,
,6,6,6,{16}3,2,1,8,4,5,6,7,
{2}8w4[8:1],1w5[8:1],
{32}1b/8b,7/2,6/3,4/5<4[32:85],{1},,{4},,{16},,{4}E3,
E2,E1,E8,E7,
{8}3b,3,5,4,6,6,2,2,
7b,7,1,8,2b,2,4,3,
{16}5,6,7,8,1,2,3,4,5/1,8,7,6,5,4,3,2,
{4}1/5,E4/E6,E7/E3,E8/E2,
{12}3,4,3,6,5,6,2,4,2,7,5,7,
A4,E4,E3,A6,E6,E5,A8,E8,E7,A2,E2,E1,
3,1,3,6,8,6,2,1,2,7,8,7,
A1,E2,E3,A7,E8,E1,A5,E6,E7,A3,E4,E5,
{4}2h[6:1]/5xh[6:1],{12}6,5,6,{4}4h[6:1]/7h[6:1],{12}2,1,2,
{4}8h[6:1]/3h[6:1],{12}7,7,7,2,2,2,8,8,8,
{1}1-5[16:21],
{16}1-5b[8:1],{32},,,,,,,,,,,,,,,,B1,B2,B3,B4,B5,B6,B7,B8,,,,,,,{16}2x,
1,2,1,{8}2,{16}7,8,7,8,{8}7,6/5,5/4,
{16}3,4,3,4,{8}3,{16}6,5,6,5,{8}6,7/8,8/1,
{16}2,1,3,1,{8}2,{16}7,8,6,8,{8}7,6/5,5/4,
{16}3,4,3,4,2,5,2,5,{8}1x,5,6/1x-5[8:1],7,
{4}8/1x,{16}3,2,1,8,6,5,4,3,8,7,6,5,
{4}4/8,{24}8x/2,7,6,5,,,1x/7,2,3,4,,,8x/2,7,6,5,,,{2}1s5[2:1],
5<1[2:1],
1q4[4:3],Ch[2:1],
{8},,,,,,,E5,
{16},,,,,,,,,,,,,,,,E7,
C,{8}E3,,,,,,,{1}Ch[1:1],
,{4},{32}1/8,
2/7,3/6,4h[32:5]/5h[32:5],,,,,,,,,1/8,2/7,3/6,4h[32:5]/5h[32:5],,,,,,,,,{8}1b/8b,
{16}3,4,{8}3,{16}6,5,7,4,8-5b[8:1],3,{8}1,2b/8-3b[8:1],
,6b/8w4b[8:1],,8b,{24},,,3x/5x,2x/6x,1x/7x,{4}8bx,
1-5[8:1],1b,{8}7,8>1-3<5[4:1],1,2/8,
{16},,1,8,7,6,5,4,{8}3/7,{16}6,5,{8}8,{16}3,4,
1,2,3,4,5/8,7,6,5,{8}4/3,2,1,8/7b-4[8:1],
,3b-8[8:1],,6,6,7,8,1,
{16}2,4,3,4,2,4,{8}3h[8:1],{16}7,5,6,5,7,5,{8}6h[8:1],
{16}4,8,3,8,2,8,{8}1,{16}5,1,6,1,7,1,{8}8,
{24}2,3,4,8,{48},{16}1,8,1,8,1,{24}8,7,6,2,3,4,8,7,6,5b/Cf,,,,,,{8}1b/Cf,
,7b/Cf,,3b/5b,{4}5b/3b,
4w8[8:1],{16}4b,Cf,,,{8}2/6,6/2<5[4:1],,2/E8/B8/E1,
,1,8,7,2,3,{16}4/5,6,7,8,
{8}1/2-7[8:1],3,2/6-8b[8:1],5-1b[8:1],6b,5b,,8b<5[8:1]/2b>5[8:1],
,2/8,,7v4[8:1]/1v4[8:1],,7b/1b,,3xh[4:1]/5xh[4:1],
{24},,,,,,2x,3x,4x,2x,3x,4x,1x,2x,3x,1x,2x,3x,{8}4x/1x,5xh[4:1]/8xh[4:1],
{24},,,,,,7x,6x,5x,7x,6x,5x,8x,7x,6x,8x,7x,6x,{8}8x/5x,4xh[4:1]/1xh[4:1],
{24},,,,,,2x,3x,4x,8x,7x,6x,1x,2x,3x,7x,6x,5x,{8}4x/3x,2xh[8:1]/5xh[8:1],
,3/6,7/4,5/8,{16}1,2,{8}1,8/3qq5<1[4:5],8/3,
,,{4}B1/E2/B2,{8},B6,,B8,
{16},,E7,E8,E1,E2,E3,E4,{4}E5,6,
{8}7pp4[8:5],,,E3,,E7,,C,
{24},,,,,,,,,,,,1x,8x,1x,8x,1x,8x,{4}1bx,
5w1[8:1],5b,{8}7,5,7,3,
7-5[8:1],1,7,{16}4,3,2,1,8,7,6,5,4,3,
{4}2b,{8}2,4,2,6,2-4[8:1],8,
{16}2/6,7,8,1,2,3,4,5,{4}6/3,1/8,
2b/7b,{16}6,5,{8}7,{16}3,4,{8}2,8/1,1/8,
{16}2/7,3,8,7,3,4,7,6,{4}5v8[8:1]/3v8[8:1],5b/3b,
{8}7,1,{32}8/6b,5,4,3,,,,,{8}2,8,{32}1/3b,4,5,6,,,,,{8}7,
1,{32}8/6b,5,4,3,,,,,{8}2,8,{32}1/3b,4,5,6,,,,,{16}7,
2,8,1,7,2,8,1,7,6,5/1,2,3/8,7,6/2,3,
{32}4/7b,6,5,4,3,2,1,8,7,6,5,4,3,2,1,8,7/3b,4,5,6,7,8,1,2,3,4,5,6,7,8,1,2,
{1}Cf/3bp5<3b[4:11],
,,,{8}5,
5h[16:1],3,3h[16:1],6,6h[16:1],4,4h[16:1],
{16}E8,B8,B1,E2,E6,B5,B4,E4,A7,B7,B2,A2,A6,B6,B3,A3,
E
