&title=恋するキリギリス
&artist=yuki/PCゲーム「白昼夢の青写真」CASE-3 OPテーマ
&first=8.95
&des=Ragna
&wholebpm=142
&demo_seek=67.83
&demo_len=12.83
&des_5=Ragna
&lv_5=13
&inote_5=(142){2}
3-5[8:1]/5-8[8:1],6^4[8:1]/4^1[8:1],
3qq8[16:7]/5pp8[16:7],,
7-1[8:1]/1-4[8:1],2^8[8:1]/8^5[8:1],
7pp4[16:7]/1qq4[16:7],,
{4}3-5[8:1]/5-8[8:1],35,6^4[8:1]/4^1[8:1],64,
3qq8[16:7]/5,35,6,7,
7-1[8:1]/1-4[8:1],71,2^8[8:1]/8^5[8:1],28,
7/1qq4[16:7],,,5b,
{8}3-5[8:1],5,3,6,8,,7-1[8:1],1,
7,2,6V48[4:1],4,6,1,1,{16}2-5[8:1],4,
{8}2h[8:3],,,6-1[8:1],6h[8:3],,,3-7[8:1],
3h[8:3],,,5-1[8:1],5h[4:1],,,,
2^8[8:1],8,2,7,5,,6^4[8:1],4,
6^1[4:1],,1^4[4:1],,4^7[4:1],,7^2[4:1],,
3^6[8:1],,,7^2[8:1],7h[8:3],,,3<2[16:9],
{2}3h[4:3],,
1h[2:1]/8,{16}3,,,45,,,5-1[8:1]/6,,
7,,,7h[16:3],,,1-5[8:1],,8-4[8:1],,1,,8,,,,
5h[2:1]/4,,,,,,,,7,,,18,,,1-5[8:1]/2h[4:1],,
,,1,,3-8[8:1],,3,,4-7[8:1],,4,,8,,,,
8h[2:1]/1,,,,,,,,6,,,54,,,4-8[8:1]/3,,
2,,,2h[16:3],,,8h[8:1],,1-4[8:1]*-6[8:1],,,,1,,,,
4h[2:1]/5,,,,,,,,2,,,18,,,8-4[8:1]/7h[4:1],,
,,8,,6-1[8:1],,6,,5-2[8:1],,5,,1,,1,,
1q8[8:1]/8,,,,,,,,75,,,5/4pp8[16:6],,,42,,
,,1,,1,,1h[4:1],,,,8,,2,,6,,
4/5q4[8:1],,,,,,,,31,,,1/8pp6[16:6],,,86,,
,,5,,5,,5h[4:1],,,,8,,6,,1,,
8p1[8:1]/1,,,,,,,,24,,,4/5qq1[16:6],{8},57,
,8,8,8h[4:1],,2,5,3^6[8:1],
,7,8,1,2^7[8:1],3,4,5-1[8:13],
,,8,,8,,8,,
8,,8,,8,,8,1h[1:1]/8,
,2,2,3,3,4,4,5^8[8:1],
,5^2[8:1],,5>1[16:3]*<1[16:3],,,,,
1-6[8:1],1,7-3[8:1],7,4-8[8:1],4,5pp8[16:5],5,
1,2,3,4,5p1[8:1],8,8b,,
7^4[8:1],,8,,2^5[8:1],,1,,
7<3[4:1],,3>7[4:1],,7w3[8:1],,,,
5-2[8:1],5,3-7[8:1],3,8-4[8:1],8,1pp4[16:5],1,
5,6,7,8,1p5[8:1],4,4b,,
3>7[4:1],,7<3[4:1],,3>5[8:3],,,4,
4w8[8:3],,,,,,,,
8p4[8:1],8,2^5[8:1],2,6p1[8:1],6,3pp1[16:5],3,
8,7,6,5,4V68[8:1],1,1b,,
2V46[8:1],,8,,7V53[8:1],,1,,
2V46[4:1],,6V82[4:1],,2w6[8:1],,,,
4p8[8:1],4,6^1[8:1],6,2p5[8:1],2,8-4[8:1],8,
3V17[4:1],,7V53[4:1],,3-1[8:1],,1w5[8:1],,
1,,,3pp5[8:1],3h[8:3],,,6qq1[16:6],
6h[2:1],,,,,,1,1,
2h[4:1],,3h[4:1],,4qq3[16:3],,,5pp5[16:5],
5,,,,,E
