&title=Sing My Pleasure
&artist=ヴィヴィ (Vo.八木海莉)
&first=0
&des=LuvLoli
&lv_5=13+
&inote_5=(175)
{1},,
{8}3h[4:1],,5,6h[4:1]/4,,3,2h[4:1]/4,,6,
7h[4:1]/5,,2,1h[4:1]/4,,7,5pp8[8:10]/8,
{4},,,4>1[8:3],,,{8},18,{4}7/2-5-8[2:1],
6,6,6,6/1-4[4:1],6,6,64,3/7-4-1[2:1],
2,2,2,2/7v4v7[8:3],1v4v1[8:3],,8,8V64[4:1],
4V68[4:1],8,1V35[4:1],5V31[4:1],1,8,{8}7,86,2V46[4:1],13,
{4}6V42[4:1],2,7V53[4:1],3V57[4:1],7,1pp3[8:1],8qq6[8:1],,
27,{8}6-4[8:1],5,7h[4:1],,3-5[8:1],4,2h[4:1],,
6-1[8:1],5,7-4[8:1],,2-5[8:1]`2?-7[8:1],,2,,
8h[8:1],2,6h[8:1],8,{4}4<8[4:1],8>4[4:1],4,8-4[8:1],8,
72,{8}3-5[8:1],4,2h[4:1],,6-4[8:1],5,7h[4:1],,
3-8[8:1],4,2-5[8:1],,7-4[8:1]`7?-2[8:1],,7,,
1h[8:1],7,3h[8:1],1,{4}5h[2:1],3,7,{8}54,
{16}45,36,{4}27,
1q5[8:1]/8,6h[4:1],{8}7,7>2[8:1],,5pp4[16:5],,1,1,,2,2,1q5[8:1]/3,,
8p4[8:1],,3h[4:1],,2,2<7[8:1],,4qq5[16:5],,8,8,,7,7,8<5[8:1]/6,,
1>4[8:1],,6h[4:1],,5,7>2[8:1]/4,,1p8[16:5],,5,5,,4,4,3-8[8:1]/5,,
6-1[8:1],,3h[4:1],,4,
{384}2-7[8:1],5-8[8:1],,,{96},,,,,{16},,,
{8}25,,,16,,38,,45,,
6h[8:3],5,,3h[8:3],4-1-4[4:1],,,,,2>4[8:1],,{16}5,6,{8}7V15[4:1],,,,
3h[8:3],4,,6h[8:3],5-8-5[4:1],,,,,7<5[8:1],,{16}4,3,{8}2,,1/8-4[8:1],,
{1}6>6<6[2:3],3h[4:3],{8}27,,45,36,27,
{384}1>4[8:1],8<5[8:1],,,{96},,,,,{16},{8}27,,,
{16}3,4,2,,6,5,7,,1,8,{8}27,,
54,{384}5<7[8:1],4q8[8:1],,,{96},,,,,{16},,,
{384}5p1[8:1],4>2[8:1],,,{96},,,,,{16},,,
{8}4/5<1[24:5],,
7h[4:1],,{24}2x,3,4,{4}5w1[4:1],,,
{4}7<4[8:1],{24}3q8[32:5],2,1,{8}8,{4}3,
4>1[8:1],{24}8q5[32:5],7,6,{8}5,{4}8,
{24}7>3[64:11],6,5,{8}4,{4}7,8-4[8:1],{8}8,3,2-5[8:1],6-1[8:1],2,6,
{24}5x,4,3,2,1,8,{8}7>3[64:11]/6h[4:1],,7,,1-5[8:1],,
{24}3q7[32:5],2,1x,{8}8,{4}3>8[32:5],3,6/7-3[8:1],
{24}5p1[32:5],6,7x,{8}8,{4}5<8[32:5],5,2/1-5[8:1],
{24}3q7[32:5],2,1x,{8}8,{4}3>5[4:1],3,{8}8,7,2/6h[8:3],,
{24}8,1,2,3,4,5,{4}8w4[8:1],8,
2>5[8:1],{24}6p1[32:5],7,8,{8}1,{4}6,
5<8[8:1],{24}1p4[32:5],2,3,{8}4,{4}1,
{24}2<6[64:11],3,4,{8}5,{4}2,1-5[8:1],{8}1,6,7-4[8:1],3-8[8:1],7,3,
{24}4x,5,6,7,8,1,{8}2<6[64:11]/3h[4:1],,2,,8-4[8:1],,
{24}6p2[32:5],7,8x,{8}1,{4}6<1[32:5],6,3/2-6[8:1],
{24}4q8[32:5],3,2x,{8}1,{4}4>1[32:5],4,7/8-4[8:1],
{24}6p2[32:5],7,8x,{8}1,{4}6<4[4:1],6,1pp4[32:11]`1?qq6[32:11],,,
{12}37,37,37,{4}37,
{8}6h[8:3],,,5,7<3[4:1]/4,,3,2,1,25,,8,74,3h[8:1],4h[8:1],5h[8:1],
6-3[8:1],,2-5[8:1],,7-3[8:1],,1v3>3[2:1],,,,,,8,2,1-5[8:1]/7,,
8h[4:1]/1,,6V41[16:3],,8,6x,4x-7[8:1],,4-1[8:1]/2,,4V61[16:3]/6,,2,4x,
6x-3[8:1],,6-1[8:1]/8,,6V41[16:3]/4,,8,6x,4x,2x>6[8:1],6<2[8:1],2,,4-8[8:1],,84,,,
{32}8,17,2-6[32:38]/6,35,4z8z4b[8:21],,,,
{1},,,
