&title=ヒトリゴト
&artist=ClariS
&first=0.9
&des=小便当
&lv_5=15
&lv_6=14
&inote_5=(165){8}8b>2[16:1]/1<7[16:1],1b/8,{12}1/8,{24}6/3,5/4h[24:7],,,{12}3,2,1,{48}3/8h,,,2,,,{16}1,8,
{20}3/7h,2,1,8,7,{120}3/6h,,,,,2,,,,,{24}1,8,7,6,{32}4/5h,3,2,1,8,7,6,5,{48}4h,3,2,1,8,7,{8}6,
1b/5q5[8:1]*p5[8:1],1/5bqq5[8:1]*pp5[8:1],{4}5>5[4:1]*<5[4:1],{8},,,,8b/4p4[8:1]*q4[8:1],
8/4bpp4[8:1]*qq4[8:1],{4}4<4[4:1]*>4[4:1],{8},,,,1b-7[16:1]/8-2[16:1],
8b/1,{12}8/1,{24}3/6,4/5h[24:7],,,{12}6,7,8,{48}6/1h,,,7,,,{16}8,1,
{20}6/2h,7,8,1,2,{120}6/3h,,,,,7,,,,,{24}8,1,2,3,{32}5/4h,6,7,8,1,2,3,4,{48}5h,6,7,8,1,2,{8}3,
8b/4pp4[8:1]*q4[8:1],8/4bqq4[8:1]*p4[8:1],{4}4>4[4:1]*<4[4:1],{8},,,,1b/5qq5[8:1]*p5[8:1],
1/5bpp5[8:1]*q5[8:1],{4}5<5[4:1]*>5[4:1],,,6<8[8:1]/4pp6[8:1],
6<2[16:3],{8}4,5pp6[32:5]*>2[8:1],6,5>6[16:3],
,3qq3[16:3],,3>3[4:1]*pp3[4:1],,,,,{4}1pp3[8:1]/3<5[8:1],
3>7[16:3],{8}5,4qq3[32:5]*<7[8:1],3,4<3[16:3],
,6pp6[16:3],,6<5[16:3]*qq5[16:3],,,,,{4}4pp6[8:1]/6<8[8:1],
6<2[16:3],{8}4,5pp5[16:3]*>2[8:1],6,5>6[16:3],
,4qq4[16:3]*q4[32:5],,4>4[4:1]*pp4[4:1],,,,,{4}3<5[8:1]/1pp3[8:1],
3>7[16:3],{8}5,4qq4[16:3]*<7[8:1],3,4<3[16:3],
,5pp5[16:3]*p5[16:3],,5<4[16:3]*qq4[16:3],,,,6,
{4}5/7pp7[16:3],2<6[8:1],2pp2[16:3],5>1[8:1],
5pp5[16:3],8<4[8:1],{2}8pp2[16:3]*<2[16:3],
{8},4/8,1>5[8:1]/5<1[8:1],1V75[8:1]/5V31[8:1],{2}5/1,
{8}2/6,4>8[8:1]/8<4[8:1],8V24[8:1]/4V68[8:1],4qq8[4:1]/8qq4[4:1],,,,,{4}1q3[16:3],
8V24[8:1],8p6[16:3],1V75[8:1],
4p2[16:3],5V31[8:1],{2}5p5[32:5]*V71[32:5],
{8},1/5,8/4>4[4:1]*V68[8:1],4/8V24[8:1],{2}4,
{8}7/3,1/5<5[4:1]*V31[8:1],5/1V75[8:1],5s1[16:3]*z1[16:3],{4},,{64}1b,
2h/8h,3h/7h,4h/6h[64:13],{16}5h[16:11],,,,,,,{2}4h[4:3],
7h[4:3],3h[4:3],
6h[4:3],2h[4:1],
2q8[8:1]/6q4[8:1],{24}5b/1b,4/8,3/7,2/6,1/5,8/4,3b/7b,8/4,1/5,2/6,3/7,4/8,
{4}1/5,{16}4-8[16:1]/8-3[16:1],3/7,{8}6/2,{16},,,,4/8-3[16:1],7/3-7[16:1],{8}2/6,
,,1-4[8:1]*-6[8:1],4v1[8:1]/6v1[8:1],{32}1-5[8:1],,,,,,,,,,,,,4/6,3/7,2/8,
{4}1b,{16}5v2[16:1]/1p5[16:1],6/2,{8}3/7,{16},,,,5/1v6[16:1],2/6p2[16:1],{8}3/7,
,,8<5[8:1]*>3[8:1],5v8[8:1]/3v8[8:1],{32}8p4[8:1]*q4[8:1],,,,,,,,,,,,,5/3,6/2,7/1,
{4}8b,{16}7V15[8:1]/2V84[8:1],6/3,{8}5-7[16:1]/4-2[16:1],{16},,,,1V73[8:1]/8V26[8:1],7/2,{8}6-4[16:1]/3-5[16:1],
,,8V24[8:1]/1V75[8:1],4V68[8:1]/5V31[8:1],{32}1-5[8:1]/8-4[8:1],,,,,,,,,,,,,3,2,1,
8b,7,6,5,4-8[8:1],3,2,1,{8}8-4[8:1],5b,{4}1b,4-6[12:1]/5<7[12:1],
5-2[8:1]/4>1[8:1],4-8[8:1]/5<1[8:1],{2}4>5[4:1],
{8}4b,1bV35[8:1]/2>4[12:1],5bV71[8:1]/6<8[12:1],2b/1s5[8:1],{48},,,,,,,,,,,,6h,7h,8h,1h,2h,3h,{8}4h,
1>2[32:3],3,1>3[8:1],4,1>4[8:1],5,1>5[8:1],6,
1>6[8:1],7,1,8,{48},,,,,,1>8[48:7],2>1[48:7],3<2[48:7],4<3[48:7]*q5[48:7],,,1,8,7,6,,,{8}1b,
,,5>3[8:1],4,6/5<8[8:1],6,3/5>1[8:1],4,
8/5<2[8:1],6,1/5,3,{48},,,,,,7<8[48:7],6>7[48:7],5>6[48:7]*z1[12:1],4>5[48:7],,,1s5[12:1],2,3,4,,,{8}7b,
,,4-7[8:1],4,5-2[8:1],6,4-8[8:1],3,
5-1[8:1],7,4,2,1p4[8:1]/8<5[8:1],3,{4}8q5[8:1],
{32}1p4[8:1],2,3,4h[32:1],,,,,8q5[8:1],7,6,5h[32:1],,,,,1p4[8:1],2,3,4h[32:1],,,,,8,7,6,5h[32:1],,,,,8,
1,2,3,4-8[32:3],5,6,7,{8}2/8w4[32:3],4b>4[4:1]*<4[4:1],,,,,{4}5h[8:1]/1>2[32:3],
{32}5/1>3[8:1],6h[32:3],,,,,,,5/1>4[8:1],6,{16}7h[16:1],{32},,,,5/1>5[8:1],6,7,8h[16:1],,,,,5/1>6[8:1],
6,7,8,{8}1h,{32}5,6,7,8,1,2,{96},,,,,,,,,,,,,,,,,,{48}4/8<8[6:1]*pp5[48:11],3/7<7[6:1],2/6>6[6:1],1/5>5[6:1],8,7,{8}6,8b,
{32},,,,,,,,8>2[8:1],7h[32:3],,,,,,,2/8<5[8:1],3,{16}4h[16:1],{32},,,,5/8>4[8:1],4,3,2h[32:1],,,,,4/8<5[32:3],
5,6,7,{8}8h,{32}5,4,3,2,1,8,{96},,,,,,,,,,,,,,,,,,{48}6/2>2[6:1],7/3<3[6:1],8/4<4[6:1],5<4[48:7]/1qq4[48:7],2,3,{8}4,1b,
,,5-3[8:1],6,4-6[8:1],2,5-2[8:1],7,
4-7[8:1],1,5-1[8:1],8,{4}1w5[8:1]*w5[8:1],1,
{16}3/8,2,1,8,{24}7/4,3,2,1,8,7,{32}6/5<3[8:1],4,3,2,1,8,7,6,,,,,{8}4,
{24}1/6,8,7,6,5,4,8,1,2,3,4,5,2,1,8,7,6,5,7,8,1,2,3,4,
{32}8b,7,6,5,8,7,6,5,1>6[32:5],2>7[32:5]*-4-6[8:1],3<8[32:5],4<1[32:5]*-6-8[8:1],1,2,3,4,{8}5/1bs5[8:1],,,8,
{24}5/8h[8:1],6,{12}7,{24}1,2,3/6h[8:1],4,{12}5,{24}7,8,4/1h[8:1],3,{12}2,{24}8,7,6/3h[8:1],5,{12}4,{24}2,1,
{32}2b,3,4,5,6,7,8,1,2-4-6[8:1],3-5-7[8:1],4-6-8[8:1],5-7-1[8:1],1,2,3,4,{4}2b/5,{8}5b/4,{24}1b,8,1,
8,1,8,1,8,1,8,1,8,1,8,1,8,1,8,1,8,1,{4}8h[8:1]/1h[8:1],
{32}1,2,3,4,8,7,6,5,2>8[16:3],3<1[16:3]*-7[32:3],4<2[16:3],5<2[32:5]*<2[32:5],7s3[8:1],6,5,4,{8}2b/3,,,4,
{24}7/4bh[8:1],6,{12}5,{24}3,2,6bh[8:1],8,{12}7,{24}5,4,8bh[8:1],2,{12}1,{24}7,6,2bh[8:1],4,{12}3,{24}1,8,
{32}4b,5,6,7,8/4,1/5,2/6,3/7,8,1,2,3,4/8,5/1,6/2,7/3,8/4,5,6,7,8,1,{48}2w6[16:1],1/3,8/4,{16}7w3[16:1]/5w1b[16:1],,,2b/Cfh[1:0],
E
&inote_6=(165){8}4b<2[4:1],4b/3h[8:3],,,,2b/3h[8:3],,,8b>6[4:1],
8b/6h[8:3],,,,5b/7h[8:3],,,5b<3[4:1],
5b/2h[8:3],,,,4b/1,,,3bpp5[8:1]/8b<5[8:1],
8/3,,,6bqq4[8:1]/4b>1[8:1],4/6,,,2b>5[16:3],
3h[8:3]/4b<7[16:3],,,,3b-7[8:1],,,6b<2[6:1],
5h[8:3]/1b>4[8:1],,,,5b-1[8:1],,,4b<8[8:1],
2h[8:3]/8b>4[8:1],,,,2b-6[8:1],,,5b>2[8:1],
7qq5[8:1],,,1b<6[8:1],3qq1[8:1],,,5-3[8:1],
7V53[4:1],{4}5V31[4:1],{8}8,8,8,5-7[8:1],
,3/5-3[8:1],,7V53[16:3]/5V31[16:3],,,,,1-7[8:1],
3V17[4:1],{4}1V75[4:1],{8}4,4,4,1-5[8:1],
,5-3[8:1]/1-7[8:1],,5V71[16:3]/1V35[16:3],,,,,4<6[8:1],
2>8[8:3],{4}4<8[4:1],{8}1,1,1,4>2[8:1],
,6/4<6[8:1],,2>4[8:1]/4<8[16:3],,,,,8>2[8:1],
6<4[8:3],{4}8>4[4:1],{8}5,5,5,8-4[8:1],
,4<6[32:3]/8>2[32:3],,4>4[4:1],,,,,{4}8h[8:1],
6h[8:1]/7<4[8:1],5h[8:1],3h[8:1]/4>1[8:1],
2h[8:1],8h[8:1]/1<5[8:1],{2}7<3[8:1]*>3[8:1],
{8}5>2[8:1],3,{4}1h[8:1],{8}1<6[8:1],7,{4}5h[8:1],
{8}5,3>6[16:3],1h[8:1],3,,4,2/6,7/1,
{4}8h[8:1],2h[8:1]/1-4[8:1],3h[8:1],5h[8:1]/4-7[8:1],
6h[8:1],8h[8:1]/7V13[8:1],{2}5V31[8:1]*V71[8:1],
{8}8-3[8:1],2,{4}4h[8:1],{8}4-7[8:1],6,{4}8h[8:1],
{8}8,2V47[16:3],4h[8:1],2,,1,3/7,6/4,
{2}5p4[1:1],1,
3q5[16:15],1,
7p4[8:7],1,
2-5[8:1],{12}5/4,6,2,8/1,7,3,
{4}5/4h[8:3],{8}6-4[8:1],8V64[16:3],{4}6,{8}3-5[8:1],1V35[16:3],
{4}3,{8}6-8[8:1]*V42[4:1],8V26[4:1],6,,,3,
{4}1b/5h[8:3],{8}3-6[8:1],1V35[16:3],{4}3,{8}6-3[8:1],8V64[16:3],
{4}6,{8}3-1[8:1]*V57[4:1],1V73[4:1],3,,,6,
{4}8b/4h[8:3],{8}6-2[8:1],8V64[16:3],{4}6,{8}3-7[8:1],1V35[16:3],
{4}3,{8}6v8[8:1],8<4[4:1]*>2[8:1],6>8[8:3],,,3h[8:1],
,4h[8:1],,5,{4}6/5-1[8:1],5v4[8:1]/4v5[8:1],
4v6[8:1]/5v3[8:1],5v2[8:1]/4v7[8:1],{2}4v1[8:1]/5v8[8:1],
{8}2/1b,7/5b>6[32:7],,5/8h[4:1],{48},,,,,,5,4,3,2,1,8,7,6,,,,,,,,,,,{8}7/4h[8:1],
1,3/8h[8:1],5,6/3h[8:1],8,2/7h[8:1],4,
2h[8:1]/5>2[8:1],7-3[8:1],5,7,1,{32}4b-8[32:3],5,{16}6,{32}8b,1,{16}2,{8}8/4b,
,7,3/8h[8:1],5,6/1h[8:1],4,8/4h[8:1],6,
5h[8:1]/1<6[8:1],3-7[8:1],1,3,5,{32}8b-4[32:3],1,{16}2,{32}4b,5,{16}6,{8}8b/4,
,6,{4}7h[8:1]/8>3[8:1],2h[8:1],4h[8:1]/5<8[8:1],
7h[8:1],{8}1<6[8:1]*>4[8:1],5,{4}1,5>2[8:1],
3<6[8:1],5>1[8:1],3<7[8:1],5,
{32}1,2,{16}3,{32}5-1[8:1],6,{16}7,{8}1qq4[16:5]*qq7[8:1],5/7V15[16:3],,,,,1/6,
8,5/2,4,2/7,8/1,6/3,5/4,
{24}1/8,2/7,3/6,4/5,,,{8}7/2,5pp6[8:1]/4qq3[8:1],3qq5[16:3]/6pp4[16:3],4b/5b,,,,2,
6/1,4,3/8,5,6/3,5/4,
{24}1/8,2/7,3/6,4/5,,,{8}8/1,6qq4[8:1]/3pp5[8:1],5pp6[8:1]/4qq3[8:1],3bqq5[16:3]/6bpp4[16:3],,,,,1-5[8:1],
8,6>4[8:1],7,2-6[8:1],1,
7<5[8:1],8,7>1[8:1]/3qq1[8:1],2,{4}3<5[8:1]/7qq5[8:1],3>5[8:3]/7>5[8:3],
7<1[8:3]/3<1[8:3],,,4<5[32:3],
6b>3[8:1],2b>7[32:5],8b<1[32:5],1b,
{32}8,7,6,5,4,3,2,1,{8}8>8[4:1]*<4[8:1],4>8[8:1],{2}8b,
{4}1/7b>1[32:3],2b<6[8:1],5b<3[32:5],4b,
{32}4,5,6,7,8v5[32:3],1,2,3,{8}4-8[32:3]*v1[32:3],8,{4}4b,{8}8b/1>8[16:7],6>6[2:1]/3b<3[2:1],
{1},{24}1,
5,1,5,1,5,1-5[8:1],5,1,5V71[8:1]*V31[8:1],1,5,{2}1b,
{4}8b/1<4[8:1],1b/8>5[8:1],8b/1<4[8:1],1b/8,
{32}8,1,2,3,4>5b[32:7]*>1[32:3],5,6,7,{8}8<5[32:3],4,{48},,,,,,4x,3x,2x,1x<1[6:1],8x<8[6:1],7x<7[6:1],6x>6[6:1],5xp5b[6:1]*>4>3>2<1<8<7<6>5[6:1],,,,,,,,{16}Cfh[1:0],,,,,,,,,,,,,,,,,
E
