&title=BlueWhite
&artist=HAYAKO
&first=0
&des=
&whole_bpm=90
&clock_count=4
&demo_seek=38.64
&demo_len=22.36
&des_5=G of the Blue Sky
&lv_5=13
&inote_5=(90){4},,,,(66)
Ch[32:29],,,,(90){1}
1hx[8:7]/8hx[8:7],{4}
7h[8:5]/8h[8:5],,,{32}E1,E2,E3,E4,E5,E6,E7,E8,{16}
E1/2hx[1:1],,,{32},B1,,E1,{16},,,,,,{32},B6,,E6,{16},,,
6h[2:1],,,{32},E4,,E3,{16},,,,56,74,74,83,83,21,,{48}
B1,B2,B3,B4,B5,B6,E1,E2,E3,E4,E5,E6,A8,A1,A2,A3,A4,A5,{8}A6f/D6/B6/D7/8hb[8:3],,,5x,2hb[8:3]/A4f/E4/E5/B4,
,,{16}8,6,{8}4hb[4:1]/A8f/B8/D8/D1,,,A5f/E5/E6/B5/1hb[8:1],,{48}
B6,B7,B8,B1,B2,B3,E7,E8,E1,E2,E3,E4,A7,A8,A1,A2,A3,A4,{8}A5f/D5/D6/B5/8bh[4:1],,6,7x/8x-3[8:1],1x/6x,{4}
8b-5[8:1]/E7f/A6/D7,8b^3[8:1]/E2f/D2/A2,8b^5[8:1]/B6f/A6/E7,8b/E3f/A2/B2,{16}
56,,46,,62,3,6,1,6,3,6,5h[16:3],6,,6,,
36,,53,,37,6,3,8,3,6,3,4h[16:3],3-8[8:1],,3,,{8}
3/5x-2[8:1],5,5/7x-4[8:1],7,{16}7/1x-6[8:1],1,1,1,1/4xpp8^3[8:3],4,4,4,
7x,6x,5xh[16:6],,,,,,3,34,56,56,78,78,12,,
8-5[8:1],7,7,7,8x-3[8:1]/1,2,2,2,8-5[8:1],7,7,7,8x^3[8:1]/1,2,2,2,
8^5[8:1],7,7,7,8x^3[8:1]/1,2,2,2,8w4[8:1],7,7,7,8b,,,,
1-4[8:1],2,2,2,1x-6[8:1]/8,7,7,7,1^4[8:1],2,2,2,1x^6[8:1]/8,7,7,7,
1-5[8:1],2,2,2,1x/8,7,7,7,{12}86,51,24,8x/3x,47,56,{32}
E6,E7,E8,E1,{48}E2,E3,E4,E5,E6,E7,{16}3b-8[8:1],2h[8:1],,6h[16:1],3-6[8:1],5h[8:1],,2h[16:5],3x,,,,
7-3[8:1],,1h[16:1],,7/1x-4[8:1],2h[8:1],,8h[18:1],1V75[8:1],7h[8:1],,3h[16:1],1b,,,,{4}
4-7[8:1]/6,4/2x-5[8:1],2/8-3[8:1],8/6x-1[8:1],{16}
6/4-8[8:1],3,2[8:1],,4x^7[8:1],3,2,5,4/1-5[8:1],2,3,2,1/8x<1[8:15],7,6,4,
A8f,,A1,E1,,E8,,A7,,,A5,E5,,E4,,A3,
,,B4/B5,,,B3/B2,,,B1/B8,,,B7/B6,,,,,
1>8[2:3],D8,,B8,,B2,,D3,,,D4,B4,,B6,,D7,
,,E7/E8,,,E1/E2,,,E3/E4,,,B5/B6,,,E8/E4,,
{512}5x-2[8:1],6x-1[8:1],{256},{128},{64},{32},{16},,,56,,,,3/8^5[8:1],,6,1h[16:1],8x,2h[16:3],,7h[16:15],
,,2h[8:1],,,4h[8:1],,,8h[8:1],,,6h[16:1],{32},A5,A4,A3,{16}A2,D6,
{512}4x-7[8:1],3x-8[8:1],{256},{128},{64},{32},{16},,,34,,,,1-4[8:1]/7,,2,8h[16:1],1x^6[16:1],7h[8:1],,5^2[16:1],
1bx,,8^5[16:1],5bx,,4^1[16:1],8bx,,7^4[16:1],4bx,,,,,{64}A1,A8,A7,A6,A5,A4,A3,A2,{16}
A1/A8,,{32}6,5,6,,4,7,4,,{16}8hb[8:3]/3,2,2-6[16:1],2,2,2,2x,,1hb[8:3]/5,4,
4-8[16:1],4,4,4,4x,3,7hb[16:5]/5,6,6-2[16:1],6,6,6,6x/8b,8,8,8,
8h[4:1],,{32}5,4,3,2,{16}1,62,1b/5b,37,3/7v4[16:1],37,3v8[16:1]/7,37,3/7x-2[16:1],,6/3x,,
7b/5-8[16:1],4,4,4,5b/3-6[16:1],2,2,2,3b/1-4[16:1],8,8,8,1b/7,6,6,6,
87,,17,,73,2,7,4,7,2,7,8h[16:3],7,,7,,
27,,82,,26,7,2,5,2,7,2,1h[16:3],2-5[8:1],,2,,{16}
2/8x-3[8:1],8,8,8,8/6x-1[8:1],6,6,6,6/4x-7[8:1],4,4,4,4/1x>1[2:1],1,1,1,
6,7,8,1,2,3,4,5,6,6,57,57,48,48,31,34,{48}
E2,E1,E8,E7,E6,E5,A2,A1,A8,A7,A6,A5,{16}A4f/D5/D4/B4/8b-5[8:1],7h[8:1],,1h[16:1],8^3[8:1],2h[8:1],,6h[16:5],8x,,,,
1^4[8:1],,7h[8:1],,1x^6[8:1],8h[8:1],,2h[16:1],1w5[8:1],3h[8:1],,8,1b,,,,
4-6[8:1]/6,3,3,3,4/2x-4[8:1],1,1,1,2/8-2[8:1],7,7,7,8/6x-8[8:1],5,5,5,
6/4-8[8:1],3,2,,4x^7[8:1]/6,5,4,3,4^1[8:1],3,4,5,4x/6,7,8,1,{32}
E3,E4,E5,E6,{48}E7,E8,E1,E2,E3,E4,{16}6b-1[8:1],7h[8:1],,5h[16:1],6-3[8:1],4h[8:1],,7h[16:5],6x,,,,
1-5[8:1],,8h[16:1],,7xV53[8:1]/1,6h[8:1],,8h[16:1],7w3[8:1],1h[8:1],,5,7x,,,,
2-5[8:1]/6,1,1,1,2/8x-3[8:1],7,7,7,6<3[16:3]/8,5,5,5,4/6x,5,5,5,
64,3,27,8,1/3x,4,57,6,54,3,26,7,8/1x>8[8:15],2,37,6,
5b/A1f,,E1,E8,,E7,,E6,,,E8,E1,,E2,,E3,
,,B5/B4,,,B6/B7,,,B8/B1,,,B2/B3,,,,,
8<1[2:3],D2,,B1,,B7,,D7,,,D6,B5,,B3,,D3,
,,A2/E3,,,A4/E5,,,A6/E7,,,A8/E1,,,A2/E3,,
,,7h[8:1]/8h[8:1],,,1h[8:1]/2h[8:1],,,3h[8:1]/4h[8:1],,,5h[8:1]/6h[8:1],,,,,
{4},,,,,E
